  0
SECTION
  2
HEADER
  9
$ACADVER
  1
AC1015
  9
$ACADMAINTVER
 70
    20
  9
$DWGCODEPAGE
  3
ANSI_1252
  9
$INSBASE
 10
0.0
 20
0.0
 30
0.0
  9
$EXTMIN
 10
-177.7840604235475
 20
-17.00055135813827
 30
0.0
  9
$EXTMAX
 10
613.9459458755784
 20
171.0877337605401
 30
0.0
  9
$LIMMIN
 10
0.0
 20
0.0
  9
$LIMMAX
 10
12.0
 20
9.0
  9
$ORTHOMODE
 70
     1
  9
$REGENMODE
 70
     1
  9
$FILLMODE
 70
     1
  9
$QTEXTMODE
 70
     0
  9
$MIRRTEXT
 70
     0
  9
$LTSCALE
 40
1.0
  9
$ATTMODE
 70
     1
  9
$TEXTSIZE
 40
0.2
  9
$TRACEWID
 40
0.05
  9
$TEXTSTYLE
  7
Standard
  9
$CLAYER
  8
0
  9
$CELTYPE
  6
ByLayer
  9
$CECOLOR
 62
   256
  9
$CELTSCALE
 40
1.0
  9
$DISPSILH
 70
     0
  9
$DIMSCALE
 40
1.0
  9
$DIMASZ
 40
0.18
  9
$DIMEXO
 40
0.0625
  9
$DIMDLI
 40
0.38
  9
$DIMRND
 40
0.0
  9
$DIMDLE
 40
0.0
  9
$DIMEXE
 40
0.18
  9
$DIMTP
 40
0.0
  9
$DIMTM
 40
0.0
  9
$DIMTXT
 40
0.18
  9
$DIMCEN
 40
0.09
  9
$DIMTSZ
 40
0.0
  9
$DIMTOL
 70
     0
  9
$DIMLIM
 70
     0
  9
$DIMTIH
 70
     1
  9
$DIMTOH
 70
     1
  9
$DIMSE1
 70
     0
  9
$DIMSE2
 70
     0
  9
$DIMTAD
 70
     0
  9
$DIMZIN
 70
     0
  9
$DIMBLK
  1

  9
$DIMASO
 70
     1
  9
$DIMSHO
 70
     1
  9
$DIMPOST
  1

  9
$DIMAPOST
  1

  9
$DIMALT
 70
     0
  9
$DIMALTD
 70
     2
  9
$DIMALTF
 40
25.4
  9
$DIMLFAC
 40
1.0
  9
$DIMTOFL
 70
     0
  9
$DIMTVP
 40
0.0
  9
$DIMTIX
 70
     0
  9
$DIMSOXD
 70
     0
  9
$DIMSAH
 70
     0
  9
$DIMBLK1
  1

  9
$DIMBLK2
  1

  9
$DIMSTYLE
  2
Standard
  9
$DIMCLRD
 70
     0
  9
$DIMCLRE
 70
     0
  9
$DIMCLRT
 70
     0
  9
$DIMTFAC
 40
1.0
  9
$DIMGAP
 40
0.09
  9
$DIMJUST
 70
     0
  9
$DIMSD1
 70
     0
  9
$DIMSD2
 70
     0
  9
$DIMTOLJ
 70
     1
  9
$DIMTZIN
 70
     0
  9
$DIMALTZ
 70
     0
  9
$DIMALTTZ
 70
     0
  9
$DIMUPT
 70
     0
  9
$DIMDEC
 70
     4
  9
$DIMTDEC
 70
     4
  9
$DIMALTU
 70
     2
  9
$DIMALTTD
 70
     2
  9
$DIMTXSTY
  7
Standard
  9
$DIMAUNIT
 70
     0
  9
$DIMADEC
 70
     0
  9
$DIMALTRND
 40
0.0
  9
$DIMAZIN
 70
     0
  9
$DIMDSEP
 70
    46
  9
$DIMATFIT
 70
     3
  9
$DIMFRAC
 70
     0
  9
$DIMLDRBLK
  1

  9
$DIMLUNIT
 70
     2
  9
$DIMLWD
 70
    -2
  9
$DIMLWE
 70
    -2
  9
$DIMTMOVE
 70
     0
  9
$LUNITS
 70
     2
  9
$LUPREC
 70
     4
  9
$SKETCHINC
 40
0.1
  9
$FILLETRAD
 40
0.0
  9
$AUNITS
 70
     0
  9
$AUPREC
 70
     0
  9
$MENU
  1
.
  9
$ELEVATION
 40
0.0
  9
$PELEVATION
 40
0.0
  9
$THICKNESS
 40
0.0
  9
$LIMCHECK
 70
     0
  9
$CHAMFERA
 40
0.0
  9
$CHAMFERB
 40
0.0
  9
$CHAMFERC
 40
0.0
  9
$CHAMFERD
 40
0.0
  9
$SKPOLY
 70
     0
  9
$TDCREATE
 40
2455098.373449479
  9
$TDUCREATE
 40
2455098.290116146
  9
$TDUPDATE
 40
2457233.376050208
  9
$TDUUPDATE
 40
2457233.292716875
  9
$TDINDWG
 40
0.0225335764
  9
$TDUSRTIMER
 40
0.0225334606
  9
$USRTIMER
 70
     1
  9
$ANGBASE
 50
0.0
  9
$ANGDIR
 70
     0
  9
$PDMODE
 70
     0
  9
$PDSIZE
 40
0.0
  9
$PLINEWID
 40
0.0
  9
$SPLFRAME
 70
     0
  9
$SPLINETYPE
 70
     6
  9
$SPLINESEGS
 70
     8
  9
$HANDSEED
  5
15F5
  9
$SURFTAB1
 70
     6
  9
$SURFTAB2
 70
     6
  9
$SURFTYPE
 70
     6
  9
$SURFU
 70
     6
  9
$SURFV
 70
     6
  9
$UCSBASE
  2

  9
$UCSNAME
  2

  9
$UCSORG
 10
0.0
 20
0.0
 30
0.0
  9
$UCSXDIR
 10
1.0
 20
0.0
 30
0.0
  9
$UCSYDIR
 10
0.0
 20
1.0
 30
0.0
  9
$UCSORTHOREF
  2

  9
$UCSORTHOVIEW
 70
     0
  9
$UCSORGTOP
 10
0.0
 20
0.0
 30
0.0
  9
$UCSORGBOTTOM
 10
0.0
 20
0.0
 30
0.0
  9
$UCSORGLEFT
 10
0.0
 20
0.0
 30
0.0
  9
$UCSORGRIGHT
 10
0.0
 20
0.0
 30
0.0
  9
$UCSORGFRONT
 10
0.0
 20
0.0
 30
0.0
  9
$UCSORGBACK
 10
0.0
 20
0.0
 30
0.0
  9
$PUCSBASE
  2

  9
$PUCSNAME
  2

  9
$PUCSORG
 10
0.0
 20
0.0
 30
0.0
  9
$PUCSXDIR
 10
1.0
 20
0.0
 30
0.0
  9
$PUCSYDIR
 10
0.0
 20
1.0
 30
0.0
  9
$PUCSORTHOREF
  2

  9
$PUCSORTHOVIEW
 70
     0
  9
$PUCSORGTOP
 10
0.0
 20
0.0
 30
0.0
  9
$PUCSORGBOTTOM
 10
0.0
 20
0.0
 30
0.0
  9
$PUCSORGLEFT
 10
0.0
 20
0.0
 30
0.0
  9
$PUCSORGRIGHT
 10
0.0
 20
0.0
 30
0.0
  9
$PUCSORGFRONT
 10
0.0
 20
0.0
 30
0.0
  9
$PUCSORGBACK
 10
0.0
 20
0.0
 30
0.0
  9
$USERI1
 70
     0
  9
$USERI2
 70
     0
  9
$USERI3
 70
     0
  9
$USERI4
 70
     0
  9
$USERI5
 70
     0
  9
$USERR1
 40
0.0
  9
$USERR2
 40
0.0
  9
$USERR3
 40
0.0
  9
$USERR4
 40
0.0
  9
$USERR5
 40
0.0
  9
$WORLDVIEW
 70
     1
  9
$SHADEDGE
 70
     3
  9
$SHADEDIF
 70
    70
  9
$TILEMODE
 70
     1
  9
$MAXACTVP
 70
    64
  9
$PINSBASE
 10
0.0
 20
0.0
 30
0.0
  9
$PLIMCHECK
 70
     0
  9
$PEXTMIN
 10
0.0
 20
0.0
 30
0.0
  9
$PEXTMAX
 10
0.0
 20
0.0
 30
0.0
  9
$PLIMMIN
 10
0.0
 20
0.0
  9
$PLIMMAX
 10
12.0
 20
9.0
  9
$UNITMODE
 70
     0
  9
$VISRETAIN
 70
     1
  9
$PLINEGEN
 70
     0
  9
$PSLTSCALE
 70
     1
  9
$TREEDEPTH
 70
  3020
  9
$CMLSTYLE
  2
Standard
  9
$CMLJUST
 70
     0
  9
$CMLSCALE
 40
1.0
  9
$PROXYGRAPHICS
 70
     1
  9
$MEASUREMENT
 70
     0
  9
$CELWEIGHT
370
    -1
  9
$ENDCAPS
280
     0
  9
$JOINSTYLE
280
     0
  9
$LWDISPLAY
290
     0
  9
$INSUNITS
 70
     1
  9
$HYPERLINKBASE
  1

  9
$STYLESHEET
  1

  9
$XEDIT
290
     1
  9
$CEPSNTYPE
380
     0
  9
$PSTYLEMODE
290
     1
  9
$FINGERPRINTGUID
  2
{4E634B6C-DD5F-492F-BDB6-580C5028518A}
  9
$VERSIONGUID
  2
{A6A48B7F-E2D4-4CC5-8FFC-E2F87132877D}
  9
$EXTNAMES
290
     1
  9
$PSVPSCALE
 40
0.0
  9
$OLESTARTUP
290
     0
  0
ENDSEC
  0
SECTION
  2
CLASSES
  0
CLASS
  1
ACDBDICTIONARYWDFLT
  2
AcDbDictionaryWithDefault
  3
ObjectDBX Classes
 90
        0
280
     0
281
     0
  0
CLASS
  1
ACDBPLACEHOLDER
  2
AcDbPlaceHolder
  3
ObjectDBX Classes
 90
        0
280
     0
281
     0
  0
CLASS
  1
LAYOUT
  2
AcDbLayout
  3
ObjectDBX Classes
 90
        0
280
     0
281
     0
  0
CLASS
  1
DICTIONARYVAR
  2
AcDbDictionaryVar
  3
ObjectDBX Classes
 90
        0
280
     0
281
     0
  0
CLASS
  1
TABLESTYLE
  2
AcDbTableStyle
  3
ObjectDBX Classes
 90
     4095
280
     0
281
     0
  0
CLASS
  1
MATERIAL
  2
AcDbMaterial
  3
ObjectDBX Classes
 90
     1153
280
     0
281
     0
  0
CLASS
  1
VISUALSTYLE
  2
AcDbVisualStyle
  3
ObjectDBX Classes
 90
     4095
280
     0
281
     0
  0
CLASS
  1
SCALE
  2
AcDbScale
  3
ObjectDBX Classes
 90
     1153
280
     0
281
     0
  0
CLASS
  1
MLEADERSTYLE
  2
AcDbMLeaderStyle
  3
ACDB_MLEADERSTYLE_CLASS
 90
     4095
280
     0
281
     0
  0
CLASS
  1
CELLSTYLEMAP
  2
AcDbCellStyleMap
  3
ObjectDBX Classes
 90
     1152
280
     0
281
     0
  0
CLASS
  1
ACDBSECTIONVIEWSTYLE
  2
AcDbSectionViewStyle
  3
ObjectDBX Classes
 90
     1025
280
     0
281
     0
  0
CLASS
  1
ACDBDETAILVIEWSTYLE
  2
AcDbDetailViewStyle
  3
ObjectDBX Classes
 90
     1025
280
     0
281
     0
  0
ENDSEC
  0
SECTION
  2
TABLES
  0
TABLE
  2
VPORT
  5
8
330
0
100
AcDbSymbolTable
 70
     1
  0
VPORT
  5
94
330
8
100
AcDbSymbolTableRecord
100
AcDbViewportTableRecord
  2
*Active
 70
     0
 10
0.0
 20
0.0
 11
1.0
 21
1.0
 12
298.5282241797207
 22
110.8461027874399
 13
0.0
 23
0.0
 14
0.5
 24
0.5
 15
0.5
 25
0.5
 16
0.0
 26
0.0
 36
1.0
 17
0.0
 27
0.0
 37
0.0
 40
555.4025257061068
 41
1.861759425493716
 42
50.0
 43
0.0
 44
0.0
 50
0.0
 51
0.0
 71
     0
 72
  1000
 73
     1
 74
     3
 75
     0
 76
     0
 77
     0
 78
     0
281
     0
 65
     1
110
0.0
120
0.0
130
0.0
111
1.0
121
0.0
131
0.0
112
0.0
122
1.0
132
0.0
 79
     0
146
0.0
1001
ACAD_NAV_VCDISPLAY
1070
     3
  0
ENDTAB
  0
TABLE
  2
LTYPE
  5
5
330
0
100
AcDbSymbolTable
 70
     3
  0
LTYPE
  5
14
330
5
100
AcDbSymbolTableRecord
100
AcDbLinetypeTableRecord
  2
ByBlock
 70
     0
  3

 72
    65
 73
     0
 40
0.0
  0
LTYPE
  5
15
330
5
100
AcDbSymbolTableRecord
100
AcDbLinetypeTableRecord
  2
ByLayer
 70
     0
  3

 72
    65
 73
     0
 40
0.0
  0
LTYPE
  5
16
330
5
100
AcDbSymbolTableRecord
100
AcDbLinetypeTableRecord
  2
Continuous
 70
     0
  3
Solid line
 72
    65
 73
     0
 40
0.0
  0
LTYPE
  5
14D
330
5
100
AcDbSymbolTableRecord
100
AcDbLinetypeTableRecord
  2
CONTINUA
 70
     0
  3
Linea continua
 72
    65
 73
     0
 40
0.0
  0
ENDTAB
  0
TABLE
  2
LAYER
  5
2
102
{ACAD_XDICTIONARY
360
F20
102
}
330
0
100
AcDbSymbolTable
 70
     2
  0
LAYER
  5
10
102
{ACAD_XDICTIONARY
360
E6
102
}
330
2
100
AcDbSymbolTableRecord
100
AcDbLayerTableRecord
  2
0
 70
     0
 62
     7
  6
Continuous
370
    -3
390
F
  0
LAYER
  5
F1F
330
2
100
AcDbSymbolTableRecord
100
AcDbLayerTableRecord
  2
Defpoints
 70
     0
 62
     7
  6
Continuous
290
     0
370
    -3
390
F
  0
ENDTAB
  0
TABLE
  2
STYLE
  5
3
330
0
100
AcDbSymbolTable
 70
     4
  0
STYLE
  5
11
330
3
100
AcDbSymbolTableRecord
100
AcDbTextStyleTableRecord
  2
Standard
 70
     0
 40
0.0
 41
1.0
 50
0.0
 71
     0
 42
0.2
  3
txt.shx
  4

  0
STYLE
  5
DC
330
3
100
AcDbSymbolTableRecord
100
AcDbTextStyleTableRecord
  2
Annotativa
 70
     0
 40
0.0
 41
1.0
 50
0.0
 71
     0
 42
0.2
  3
txt.shx
  4

1001
AcadAnnotative
1000
AnnotativeData
1002
{
1070
     1
1070
     1
1002
}
  0
STYLE
  5
14E
330
3
100
AcDbSymbolTableRecord
100
AcDbTextStyleTableRecord
  2
H
 70
     0
 40
1.75
 41
1.0
 50
0.0
 71
     0
 42
1.75
  3
swiss.ttf
  4

1001
ACAD
1000
Swis721 BT
1071
       34
  0
STYLE
  5
14F
330
3
100
AcDbSymbolTableRecord
100
AcDbTextStyleTableRecord
  2
ZD
 70
     0
 40
0.0
 41
1.0
 50
0.0
 71
     0
 42
3.0
  3
SIMPLEX
  4

  0
ENDTAB
  0
TABLE
  2
VIEW
  5
6
330
0
100
AcDbSymbolTable
 70
     0
  0
ENDTAB
  0
TABLE
  2
UCS
  5
7
330
0
100
AcDbSymbolTable
 70
     0
  0
ENDTAB
  0
TABLE
  2
APPID
  5
9
330
0
100
AcDbSymbolTable
 70
    15
  0
APPID
  5
12
330
9
100
AcDbSymbolTableRecord
100
AcDbRegAppTableRecord
  2
ACAD
 70
     0
  0
APPID
  5
DD
330
9
100
AcDbSymbolTableRecord
100
AcDbRegAppTableRecord
  2
AcadAnnoPO
 70
     0
  0
APPID
  5
DE
330
9
100
AcDbSymbolTableRecord
100
AcDbRegAppTableRecord
  2
AcadAnnotative
 70
     0
  0
APPID
  5
DF
330
9
100
AcDbSymbolTableRecord
100
AcDbRegAppTableRecord
  2
ACAD_DSTYLE_DIMJAG
 70
     0
  0
APPID
  5
E0
330
9
100
AcDbSymbolTableRecord
100
AcDbRegAppTableRecord
  2
ACAD_DSTYLE_DIMTALN
 70
     0
  0
APPID
  5
107
330
9
100
AcDbSymbolTableRecord
100
AcDbRegAppTableRecord
  2
ACAD_MLEADERVER
 70
     0
  0
APPID
  5
E5F
330
9
100
AcDbSymbolTableRecord
100
AcDbRegAppTableRecord
  2
VDEXTRAPARAM
 70
     0
  0
APPID
  5
E60
330
9
100
AcDbSymbolTableRecord
100
AcDbRegAppTableRecord
  2
ACAD_NAV_VCDISPLAY
 70
     0
  0
APPID
  5
10CB
330
9
100
AcDbSymbolTableRecord
100
AcDbRegAppTableRecord
  2
ACAD_EXEMPT_FROM_CAD_STANDARDS
 70
     0
  0
APPID
  5
13CA
330
9
100
AcDbSymbolTableRecord
100
AcDbRegAppTableRecord
  2
ACAD_PSEXT
 70
     0
  0
APPID
  5
13CB
330
9
100
AcDbSymbolTableRecord
100
AcDbRegAppTableRecord
  2
VD_EX_PRINTER_DWG_STYLE_SHEET
 70
     0
  0
APPID
  5
13CC
330
9
100
AcDbSymbolTableRecord
100
AcDbRegAppTableRecord
  2
VD_EX_PRINTER_SIZEX
 70
     0
  0
APPID
  5
13CD
330
9
100
AcDbSymbolTableRecord
100
AcDbRegAppTableRecord
  2
VD_EX_PRINTER_AVSIZEX
 70
     0
  0
APPID
  5
13CE
330
9
100
AcDbSymbolTableRecord
100
AcDbRegAppTableRecord
  2
VD_EX_PRINTER_SIZEY
 70
     0
  0
APPID
  5
13CF
330
9
100
AcDbSymbolTableRecord
100
AcDbRegAppTableRecord
  2
VD_EX_PRINTER_AVSIZEY
 70
     0
  0
ENDTAB
  0
TABLE
  2
DIMSTYLE
  5
A
330
0
100
AcDbSymbolTable
 70
     5
100
AcDbDimStyleTable
 71
     2
340
27
340
E1
  0
DIMSTYLE
105
27
102
{ACAD_REACTORS
330
F2B
330
F2C
330
F2D
330
F2E
330
151F
330
1520
330
1521
330
1522
102
}
330
A
100
AcDbSymbolTableRecord
100
AcDbDimStyleTableRecord
  2
Standard
 70
     0
340
11
  0
DIMSTYLE
105
E1
330
A
100
AcDbSymbolTableRecord
100
AcDbDimStyleTableRecord
  2
Annotativa
 70
     0
 40
0.0
340
11
1001
AcadAnnotative
1000
AnnotativeData
1002
{
1070
     1
1070
     1
1002
}
1001
ACAD_DSTYLE_DIMJAG
1070
   388
1040
1.5
1001
ACAD_DSTYLE_DIMTALN
1070
   392
1070
     0
  0
DIMSTYLE
105
150
330
A
100
AcDbSymbolTableRecord
100
AcDbDimStyleTableRecord
  2
GEWISS
 70
     0
 41
1.7
 42
1.0
 43
7.0
 44
0.3
 73
     0
 74
     0
 77
     1
140
1.75
141
1.5
147
0.5
172
     1
176
     1
177
     1
340
14E
  0
DIMSTYLE
105
13C9
330
A
100
AcDbSymbolTableRecord
100
AcDbDimStyleTableRecord
  2
ISO-25
 70
     0
 41
2.5
 42
0.625
 44
1.25
 47
1.0
 48
1.0
 73
     0
 77
     1
 78
     8
140
2.5
147
0.625
271
     2
340
11
  0
ENDTAB
  0
TABLE
  2
BLOCK_RECORD
  5
1
330
0
100
AcDbSymbolTable
 70
    22
  0
BLOCK_RECORD
  5
1F
330
1
100
AcDbSymbolTableRecord
100
AcDbBlockTableRecord
  2
*Model_Space
340
22
  0
BLOCK_RECORD
  5
58
330
1
100
AcDbSymbolTableRecord
100
AcDbBlockTableRecord
  2
*Paper_Space
340
59
  0
BLOCK_RECORD
  5
5D
330
1
100
AcDbSymbolTableRecord
100
AcDbBlockTableRecord
  2
*Paper_Space0
340
5E
  0
BLOCK_RECORD
  5
E5B
330
1
100
AcDbSymbolTableRecord
100
AcDbBlockTableRecord
  2
VDDIM_DEFAULT
340
0
  0
BLOCK_RECORD
  5
EEB
330
1
100
AcDbSymbolTableRecord
100
AcDbBlockTableRecord
  2
*D2
340
0
  0
BLOCK_RECORD
  5
EF8
330
1
100
AcDbSymbolTableRecord
100
AcDbBlockTableRecord
  2
*D3
340
0
  0
BLOCK_RECORD
  5
F05
330
1
100
AcDbSymbolTableRecord
100
AcDbBlockTableRecord
  2
*D4
340
0
  0
BLOCK_RECORD
  5
F12
330
1
100
AcDbSymbolTableRecord
100
AcDbBlockTableRecord
  2
*D5
340
0
  0
BLOCK_RECORD
  5
F2F
330
1
100
AcDbSymbolTableRecord
100
AcDbBlockTableRecord
  2
*D6
340
0
  0
BLOCK_RECORD
  5
F3C
330
1
100
AcDbSymbolTableRecord
100
AcDbBlockTableRecord
  2
*D7
340
0
  0
BLOCK_RECORD
  5
F49
330
1
100
AcDbSymbolTableRecord
100
AcDbBlockTableRecord
  2
*D8
340
0
  0
BLOCK_RECORD
  5
F56
330
1
100
AcDbSymbolTableRecord
100
AcDbBlockTableRecord
  2
*D9
340
0
  0
BLOCK_RECORD
  5
10D2
330
1
100
AcDbSymbolTableRecord
100
AcDbBlockTableRecord
  2
*D10
340
0
  0
BLOCK_RECORD
  5
11A7
330
1
100
AcDbSymbolTableRecord
100
AcDbBlockTableRecord
  2
*D11
340
0
  0
BLOCK_RECORD
  5
14CA
330
1
100
AcDbSymbolTableRecord
100
AcDbBlockTableRecord
  2
*D12
340
0
  0
BLOCK_RECORD
  5
14D7
330
1
100
AcDbSymbolTableRecord
100
AcDbBlockTableRecord
  2
*D13
340
0
  0
BLOCK_RECORD
  5
14E4
330
1
100
AcDbSymbolTableRecord
100
AcDbBlockTableRecord
  2
*D14
340
0
  0
BLOCK_RECORD
  5
14F1
330
1
100
AcDbSymbolTableRecord
100
AcDbBlockTableRecord
  2
*D15
340
0
  0
BLOCK_RECORD
  5
1523
330
1
100
AcDbSymbolTableRecord
100
AcDbBlockTableRecord
  2
*D17
340
0
  0
BLOCK_RECORD
  5
1530
330
1
100
AcDbSymbolTableRecord
100
AcDbBlockTableRecord
  2
*D18
340
0
  0
BLOCK_RECORD
  5
153D
330
1
100
AcDbSymbolTableRecord
100
AcDbBlockTableRecord
  2
*D19
340
0
  0
BLOCK_RECORD
  5
154A
330
1
100
AcDbSymbolTableRecord
100
AcDbBlockTableRecord
  2
*D20
340
0
  0
ENDTAB
  0
ENDSEC
  0
SECTION
  2
BLOCKS
  0
BLOCK
  5
20
330
1F
100
AcDbEntity
  8
0
100
AcDbBlockBegin
  2
*Model_Space
 70
     0
 10
0.0
 20
0.0
 30
0.0
  3
*Model_Space
  1

  0
ENDBLK
  5
21
330
1F
100
AcDbEntity
  8
0
100
AcDbBlockEnd
  0
BLOCK
  5
5A
330
58
100
AcDbEntity
 67
     1
  8
0
100
AcDbBlockBegin
  2
*Paper_Space
 70
     0
 10
0.0
 20
0.0
 30
0.0
  3
*Paper_Space
  1

  0
ENDBLK
  5
5B
330
58
100
AcDbEntity
 67
     1
  8
0
100
AcDbBlockEnd
  0
BLOCK
  5
5F
330
5D
100
AcDbEntity
 67
     1
  8
0
100
AcDbBlockBegin
  2
*Paper_Space0
 70
     0
 10
0.0
 20
0.0
 30
0.0
  3
*Paper_Space0
  1

  0
ENDBLK
  5
60
330
5D
100
AcDbEntity
 67
     1
  8
0
100
AcDbBlockEnd
  0
BLOCK
  5
E5C
330
E5B
100
AcDbEntity
  8
0
100
AcDbBlockBegin
  2
VDDIM_DEFAULT
 70
     0
 10
0.0
 20
0.0
 30
0.0
  3
VDDIM_DEFAULT
  1

  0
HATCH
  5
E5D
330
E5B
100
AcDbEntity
  8
0
 62
     0
370
    -2
100
AcDbHatch
 10
0.0
 20
0.0
 30
0.0
210
0.0
220
0.0
230
-1.0
  2
SOLID
 70
     1
 71
     0
 91
        1
 92
        2
 72
     0
 73
     1
 93
        3
 10
0.0
 20
0.0
 10
1.0
 20
-0.1665
 10
1.0
 20
0.1665
 97
        0
 75
     0
 76
     1
 98
        1
 10
0.0
 20
0.0
  0
ENDBLK
  5
E5E
330
E5B
100
AcDbEntity
  8
0
100
AcDbBlockEnd
  0
BLOCK
  5
EEC
330
EEB
100
AcDbEntity
  8
0
100
AcDbBlockBegin
  2
*D2
 70
     1
 10
0.0
 20
0.0
 30
0.0
  3
*D2
  1

  0
LINE
  5
EED
330
EEB
100
AcDbEntity
  8
0
 62
     0
370
    -2
100
AcDbLine
 10
20.36449744536722
 20
19.11931731663766
 30
0.0
 11
20.36449744536722
 21
-15.76828405907723
 31
0.0
  0
LINE
  5
EEE
330
EEB
100
AcDbEntity
  8
0
 62
     0
370
    -2
100
AcDbLine
 10
175.3589370453672
 20
19.05681731663766
 30
0.0
 11
175.3589370453672
 21
-15.76828405907723
 31
0.0
  0
LINE
  5
EEF
330
EEB
100
AcDbEntity
  8
0
 62
     0
370
    -2
100
AcDbLine
 10
26.36449744536722
 20
-15.58828405907723
 30
0.0
 11
82.32936855359131
 21
-15.58828405907723
 31
0.0
  0
LINE
  5
EF0
330
EEB
100
AcDbEntity
  8
0
 62
     0
370
    -2
100
AcDbLine
 10
169.3589370453672
 20
-15.58828405907723
 30
0.0
 11
107.0093685535913
 21
-15.58828405907723
 31
0.0
  0
SOLID
  5
EF1
330
EEB
100
AcDbEntity
  8
0
 62
     0
100
AcDbTrace
 10
26.36449744536722
 20
-14.58828405907723
 30
0.0
 11
26.36449744536722
 21
-16.58828405907723
 31
0.0
 12
20.36449744536722
 22
-15.58828405907723
 32
0.0
 13
20.36449744536722
 23
-15.58828405907723
 33
0.0
  0
SOLID
  5
EF2
330
EEB
100
AcDbEntity
  8
0
 62
     0
100
AcDbTrace
 10
169.3589370453672
 20
-14.58828405907723
 30
0.0
 11
169.3589370453672
 21
-16.58828405907723
 31
0.0
 12
175.3589370453672
 22
-15.58828405907723
 32
0.0
 13
175.3589370453672
 23
-15.58828405907723
 33
0.0
  0
MTEXT
  5
EF3
330
EEB
100
AcDbEntity
  8
0
 62
     0
100
AcDbMText
 10
94.66936855359131
 20
-15.58828405907723
 30
0.0
 40
7.0
 41
0.0
 71
     5
 72
     1
  1
\A1;155.0
 73
     1
 44
1.0
1001
ACAD
1000
MTEXTBEGIN
1070
    73
1070
     1
1070
    44
1040
1.0
1070
    74
1070
     0
1000
MTEXTEND
  0
POINT
  5
EF4
330
EEB
100
AcDbEntity
  8
Defpoints
 62
     0
100
AcDbPoint
 10
20.36449744536722
 20
19.18181731663766
 30
0.0
  0
POINT
  5
EF5
330
EEB
100
AcDbEntity
  8
Defpoints
 62
     0
100
AcDbPoint
 10
175.3589370453672
 20
19.11931731663766
 30
0.0
  0
POINT
  5
EF6
330
EEB
100
AcDbEntity
  8
Defpoints
 62
     0
100
AcDbPoint
 10
175.3589370453672
 20
-15.58828405907723
 30
0.0
  0
ENDBLK
  5
EF7
330
EEB
100
AcDbEntity
  8
0
100
AcDbBlockEnd
  0
BLOCK
  5
EF9
330
EF8
100
AcDbEntity
  8
0
100
AcDbBlockBegin
  2
*D3
 70
     1
 10
0.0
 20
0.0
 30
0.0
  3
*D3
  1

  0
LINE
  5
EFA
330
EF8
100
AcDbEntity
  8
0
 62
     0
370
    -2
100
AcDbLine
 10
169.4601124453671
 20
13.15799271663766
 30
0.0
 11
223.6830184012375
 21
13.15799271663764
 31
0.0
  0
LINE
  5
EFB
330
EF8
100
AcDbEntity
  8
0
 62
     0
370
    -2
100
AcDbLine
 10
169.4573322453671
 20
128.1579927166376
 30
0.0
 11
223.6830184012375
 21
128.1579927166375
 31
0.0
  0
LINE
  5
EFC
330
EF8
100
AcDbEntity
  8
0
 62
     0
370
    -2
100
AcDbLine
 10
223.5030184012375
 20
19.15799271663764
 30
0.0
 11
223.5030184012375
 21
65.70161832346129
 31
0.0
  0
LINE
  5
EFD
330
EF8
100
AcDbEntity
  8
0
 62
     0
370
    -2
100
AcDbLine
 10
223.5030184012375
 20
122.1579927166375
 30
0.0
 11
223.5030184012375
 21
72.8816183234613
 31
0.0
  0
SOLID
  5
EFE
330
EF8
100
AcDbEntity
  8
0
 62
     0
100
AcDbTrace
 10
222.5030184012375
 20
19.15799271663764
 30
0.0
 11
224.5030184012375
 21
19.15799271663764
 31
0.0
 12
223.5030184012375
 22
13.15799271663764
 32
0.0
 13
223.5030184012375
 23
13.15799271663764
 33
0.0
  0
SOLID
  5
EFF
330
EF8
100
AcDbEntity
  8
0
 62
     0
100
AcDbTrace
 10
222.5030184012375
 20
122.1579927166375
 30
0.0
 11
224.5030184012375
 21
122.1579927166375
 31
0.0
 12
223.5030184012375
 22
128.1579927166375
 32
0.0
 13
223.5030184012375
 23
128.1579927166375
 33
0.0
  0
MTEXT
  5
F00
330
EF8
100
AcDbEntity
  8
0
 62
     0
100
AcDbMText
 10
223.5030184012375
 20
69.29161832346132
 30
0.0
 40
7.0
 41
0.0
 71
     5
 72
     1
  1
\A1;115.0
 73
     1
 44
1.0
1001
ACAD
1000
MTEXTBEGIN
1070
    73
1070
     1
1070
    44
1040
1.0
1070
    74
1070
     0
1000
MTEXTEND
  0
POINT
  5
F01
330
EF8
100
AcDbEntity
  8
Defpoints
 62
     0
100
AcDbPoint
 10
169.3976124453671
 20
13.15799271663766
 30
0.0
  0
POINT
  5
F02
330
EF8
100
AcDbEntity
  8
Defpoints
 62
     0
100
AcDbPoint
 10
169.3948322453671
 20
128.1579927166376
 30
0.0
  0
POINT
  5
F03
330
EF8
100
AcDbEntity
  8
Defpoints
 62
     0
100
AcDbPoint
 10
223.5030184012375
 20
128.1579927166375
 30
0.0
  0
ENDBLK
  5
F04
330
EF8
100
AcDbEntity
  8
0
100
AcDbBlockEnd
  0
BLOCK
  5
F06
330
F05
100
AcDbEntity
  8
0
100
AcDbBlockBegin
  2
*D4
 70
     1
 10
0.0
 20
0.0
 30
0.0
  3
*D4
  1

  0
LINE
  5
F07
330
F05
100
AcDbEntity
  8
0
 62
     0
370
    -2
100
AcDbLine
 10
-141.2945177876792
 20
68.29439467988561
 30
0.0
 11
-141.2945177876792
 21
-15.56773957702126
 31
0.0
  0
LINE
  5
F08
330
F05
100
AcDbEntity
  8
0
 62
     0
370
    -2
100
AcDbLine
 10
-86.32367701007948
 20
8.869000716637543
 30
0.0
 11
-86.32367701007948
 21
-15.56773957702125
 31
0.0
  0
LINE
  5
F09
330
F05
100
AcDbEntity
  8
0
 62
     0
370
    -2
100
AcDbLine
 10
-135.2945177876792
 20
-15.38773957702125
 30
0.0
 11
-123.815764065546
 21
-15.38773957702125
 31
0.0
  0
LINE
  5
F0A
330
F05
100
AcDbEntity
  8
0
 62
     0
370
    -2
100
AcDbLine
 10
-92.3236770100795
 20
-15.38773957702125
 30
0.0
 11
-103.8024307322127
 21
-15.38773957702125
 31
0.0
  0
SOLID
  5
F0B
330
F05
100
AcDbEntity
  8
0
 62
     0
100
AcDbTrace
 10
-135.2945177876792
 20
-14.38773957702125
 30
0.0
 11
-135.2945177876792
 21
-16.38773957702125
 31
0.0
 12
-141.2945177876792
 22
-15.38773957702125
 32
0.0
 13
-141.2945177876792
 23
-15.38773957702125
 33
0.0
  0
SOLID
  5
F0C
330
F05
100
AcDbEntity
  8
0
 62
     0
100
AcDbTrace
 10
-92.3236770100795
 20
-14.38773957702125
 30
0.0
 11
-92.3236770100795
 21
-16.38773957702125
 31
0.0
 12
-86.32367701007948
 22
-15.38773957702125
 32
0.0
 13
-86.32367701007948
 23
-15.38773957702125
 33
0.0
  0
MTEXT
  5
F0D
330
F05
100
AcDbEntity
  8
0
 62
     0
100
AcDbMText
 10
-113.8090973988793
 20
-15.38773957702125
 30
0.0
 40
7.0
 41
0.0
 71
     5
 72
     1
  1
\A1;55.0
 73
     1
 44
1.0
1001
ACAD
1000
MTEXTBEGIN
1070
    73
1070
     1
1070
    44
1040
1.0
1070
    74
1070
     0
1000
MTEXTEND
  0
POINT
  5
F0E
330
F05
100
AcDbEntity
  8
Defpoints
 62
     0
100
AcDbPoint
 10
-141.2945177876792
 20
68.35689467988562
 30
0.0
  0
POINT
  5
F0F
330
F05
100
AcDbEntity
  8
Defpoints
 62
     0
100
AcDbPoint
 10
-86.32367701007948
 20
8.931500716637543
 30
0.0
  0
POINT
  5
F10
330
F05
100
AcDbEntity
  8
Defpoints
 62
     0
100
AcDbPoint
 10
-86.32367701007948
 20
-15.38773957702125
 30
0.0
  0
ENDBLK
  5
F11
330
F05
100
AcDbEntity
  8
0
100
AcDbBlockEnd
  0
BLOCK
  5
F13
330
F12
100
AcDbEntity
  8
0
100
AcDbBlockBegin
  2
*D5
 70
     1
 10
0.0
 20
0.0
 30
0.0
  3
*D5
  1

  0
LINE
  5
F14
330
F12
100
AcDbEntity
  8
0
 62
     0
370
    -2
100
AcDbLine
 10
-86.32367701007948
 20
13.09549271663773
 30
0.0
 11
-86.32367701007948
 21
-15.56773957702125
 31
0.0
  0
LINE
  5
F15
330
F12
100
AcDbEntity
  8
0
 62
     0
370
    -2
100
AcDbLine
 10
-33.32367701007928
 20
24.96457713663654
 30
0.0
 11
-33.32367701007928
 21
-15.56773957702125
 31
0.0
  0
LINE
  5
F16
330
F12
100
AcDbEntity
  8
0
 62
     0
370
    -2
100
AcDbLine
 10
-80.32367701007952
 20
-15.38773957702125
 30
0.0
 11
-67.46641209932461
 21
-15.38773957702125
 31
0.0
  0
LINE
  5
F17
330
F12
100
AcDbEntity
  8
0
 62
     0
370
    -2
100
AcDbLine
 10
-39.32367701007928
 20
-15.38773957702125
 30
0.0
 11
-47.45307876599127
 21
-15.38773957702125
 31
0.0
  0
SOLID
  5
F18
330
F12
100
AcDbEntity
  8
0
 62
     0
100
AcDbTrace
 10
-80.32367701007952
 20
-14.38773957702125
 30
0.0
 11
-80.32367701007952
 21
-16.38773957702125
 31
0.0
 12
-86.32367701007948
 22
-15.38773957702125
 32
0.0
 13
-86.32367701007948
 23
-15.38773957702125
 33
0.0
  0
SOLID
  5
F19
330
F12
100
AcDbEntity
  8
0
 62
     0
100
AcDbTrace
 10
-39.32367701007928
 20
-14.38773957702125
 30
0.0
 11
-39.32367701007928
 21
-16.38773957702125
 31
0.0
 12
-33.32367701007928
 22
-15.38773957702125
 32
0.0
 13
-33.32367701007928
 23
-15.38773957702125
 33
0.0
  0
MTEXT
  5
F1A
330
F12
100
AcDbEntity
  8
0
 62
     0
100
AcDbMText
 10
-57.45974543265794
 20
-15.38773957702125
 30
0.0
 40
7.0
 41
0.0
 71
     5
 72
     1
  1
\A1;53.0
 73
     1
 44
1.0
1001
ACAD
1000
MTEXTBEGIN
1070
    73
1070
     1
1070
    44
1040
1.0
1070
    74
1070
     0
1000
MTEXTEND
  0
POINT
  5
F1B
330
F12
100
AcDbEntity
  8
Defpoints
 62
     0
100
AcDbPoint
 10
-86.32367701007948
 20
13.15799271663773
 30
0.0
  0
POINT
  5
F1C
330
F12
100
AcDbEntity
  8
Defpoints
 62
     0
100
AcDbPoint
 10
-33.32367701007928
 20
25.02707713663653
 30
0.0
  0
POINT
  5
F1D
330
F12
100
AcDbEntity
  8
Defpoints
 62
     0
100
AcDbPoint
 10
-33.32367701007928
 20
-15.38773957702125
 30
0.0
  0
ENDBLK
  5
F1E
330
F12
100
AcDbEntity
  8
0
100
AcDbBlockEnd
  0
BLOCK
  5
F30
330
F2F
100
AcDbEntity
  8
0
100
AcDbBlockBegin
  2
*D6
 70
     1
 10
0.0
 20
0.0
 30
0.0
  3
*D6
  1

  0
LINE
  5
FEF
330
F2F
100
AcDbEntity
  8
0
 62
     0
370
    -2
100
AcDbLine
 10
18.02988794178822
 20
16.2560666927116
 30
0.0
 11
18.02988794178821
 21
-13.39285912244497
 31
0.0
  0
LINE
  5
FF0
330
F2F
100
AcDbEntity
  8
0
 62
     0
370
    -2
100
AcDbLine
 10
214.0298879417882
 20
16.1935666927116
 30
0.0
 11
214.0298879417882
 21
-13.39285912244497
 31
0.0
  0
LINE
  5
FF1
330
F2F
100
AcDbEntity
  8
0
 62
     0
370
    -2
100
AcDbLine
 10
24.02988794178821
 20
-13.21285912244497
 30
0.0
 11
109.4355786392675
 21
-13.21285912244497
 31
0.0
  0
LINE
  5
FF2
330
F2F
100
AcDbEntity
  8
0
 62
     0
370
    -2
100
AcDbLine
 10
208.0298879417882
 20
-13.21285912244497
 30
0.0
 11
134.1155786392675
 21
-13.21285912244497
 31
0.0
  0
SOLID
  5
FF3
330
F2F
100
AcDbEntity
  8
0
 62
     0
100
AcDbTrace
 10
24.02988794178821
 20
-12.21285912244497
 30
0.0
 11
24.02988794178821
 21
-14.21285912244497
 31
0.0
 12
18.02988794178821
 22
-13.21285912244497
 32
0.0
 13
18.02988794178821
 23
-13.21285912244497
 33
0.0
  0
SOLID
  5
FF4
330
F2F
100
AcDbEntity
  8
0
 62
     0
100
AcDbTrace
 10
208.0298879417882
 20
-12.21285912244497
 30
0.0
 11
208.0298879417882
 21
-14.21285912244497
 31
0.0
 12
214.0298879417882
 22
-13.21285912244497
 32
0.0
 13
214.0298879417882
 23
-13.21285912244497
 33
0.0
  0
MTEXT
  5
FF5
330
F2F
100
AcDbEntity
  8
0
 62
     0
100
AcDbMText
 10
121.7755786392675
 20
-13.21285912244497
 30
0.0
 40
7.0
 41
0.0
 71
     5
 72
     1
  1
\A1;196.0
 73
     1
 44
1.0
1001
ACAD
1000
MTEXTBEGIN
1070
    73
1070
     1
1070
    44
1040
1.0
1070
    74
1070
     0
1000
MTEXTEND
  0
POINT
  5
FF6
330
F2F
100
AcDbEntity
  8
Defpoints
 62
     0
100
AcDbPoint
 10
18.02988794178822
 20
16.3185666927116
 30
0.0
  0
POINT
  5
FF7
330
F2F
100
AcDbEntity
  8
Defpoints
 62
     0
100
AcDbPoint
 10
214.0298879417882
 20
16.2560666927116
 30
0.0
  0
POINT
  5
FF8
330
F2F
100
AcDbEntity
  8
Defpoints
 62
     0
100
AcDbPoint
 10
214.0298879417882
 20
-13.21285912244497
 30
0.0
  0
ENDBLK
  5
F31
330
F2F
100
AcDbEntity
  8
0
100
AcDbBlockEnd
  0
BLOCK
  5
F3D
330
F3C
100
AcDbEntity
  8
0
100
AcDbBlockBegin
  2
*D7
 70
     1
 10
0.0
 20
0.0
 30
0.0
  3
*D7
  1

  0
LINE
  5
F95
330
F3C
100
AcDbEntity
  8
0
 62
     0
370
    -2
100
AcDbLine
 10
208.5327903845982
 20
10.7561889355216
 30
0.0
 11
262.7556963404686
 21
10.75618893552158
 31
0.0
  0
LINE
  5
F96
330
F3C
100
AcDbEntity
  8
0
 62
     0
370
    -2
100
AcDbLine
 10
208.5300101845982
 20
160.7561889355215
 30
0.0
 11
262.7556963404686
 21
160.7561889355215
 31
0.0
  0
LINE
  5
F97
330
F3C
100
AcDbEntity
  8
0
 62
     0
370
    -2
100
AcDbLine
 10
262.5756963404686
 20
16.75618893552158
 30
0.0
 11
262.5756963404686
 21
98.29981454234522
 31
0.0
  0
LINE
  5
F98
330
F3C
100
AcDbEntity
  8
0
 62
     0
370
    -2
100
AcDbLine
 10
262.5756963404687
 20
154.7561889355215
 30
0.0
 11
262.5756963404686
 21
105.4798145423452
 31
0.0
  0
SOLID
  5
F99
330
F3C
100
AcDbEntity
  8
0
 62
     0
100
AcDbTrace
 10
261.5756963404686
 20
16.75618893552158
 30
0.0
 11
263.5756963404686
 21
16.75618893552158
 31
0.0
 12
262.5756963404686
 22
10.75618893552158
 32
0.0
 13
262.5756963404686
 23
10.75618893552158
 33
0.0
  0
SOLID
  5
F9A
330
F3C
100
AcDbEntity
  8
0
 62
     0
100
AcDbTrace
 10
261.5756963404686
 20
154.7561889355215
 30
0.0
 11
263.5756963404686
 21
154.7561889355215
 31
0.0
 12
262.5756963404687
 22
160.7561889355215
 32
0.0
 13
262.5756963404687
 23
160.7561889355215
 33
0.0
  0
MTEXT
  5
F9B
330
F3C
100
AcDbEntity
  8
0
 62
     0
100
AcDbMText
 10
262.5756963404686
 20
101.8898145423452
 30
0.0
 40
7.0
 41
0.0
 71
     5
 72
     1
  1
\A1;150.0
 73
     1
 44
1.0
1001
ACAD
1000
MTEXTBEGIN
1070
    73
1070
     1
1070
    44
1040
1.0
1070
    74
1070
     0
1000
MTEXTEND
  0
POINT
  5
F9C
330
F3C
100
AcDbEntity
  8
Defpoints
 62
     0
100
AcDbPoint
 10
208.4702903845982
 20
10.7561889355216
 30
0.0
  0
POINT
  5
F9D
330
F3C
100
AcDbEntity
  8
Defpoints
 62
     0
100
AcDbPoint
 10
208.4675101845982
 20
160.7561889355215
 30
0.0
  0
POINT
  5
F9E
330
F3C
100
AcDbEntity
  8
Defpoints
 62
     0
100
AcDbPoint
 10
262.5756963404687
 20
160.7561889355215
 30
0.0
  0
ENDBLK
  5
F3E
330
F3C
100
AcDbEntity
  8
0
100
AcDbBlockEnd
  0
BLOCK
  5
F4A
330
F49
100
AcDbEntity
  8
0
100
AcDbBlockBegin
  2
*D8
 70
     1
 10
0.0
 20
0.0
 30
0.0
  3
*D8
  1

  0
LINE
  5
13B9
330
F49
100
AcDbEntity
  8
0
 62
     0
370
    -2
100
AcDbLine
 10
-177.7840604235475
 20
101.953728567519
 30
0.0
 11
-177.7840604235475
 21
-13.68055135813827
 31
0.0
  0
LINE
  5
13BA
330
F49
100
AcDbEntity
  8
0
 62
     0
370
    -2
100
AcDbLine
 10
-113.7840604235475
 20
10.75618893552052
 30
0.0
 11
-113.7840604235475
 21
-13.68055135813827
 31
0.0
  0
LINE
  5
13BB
330
F49
100
AcDbEntity
  8
0
 62
     0
370
    -2
100
AcDbLine
 10
-171.7840604235474
 20
-13.50055135813827
 30
0.0
 11
-151.276147479014
 21
-13.50055135813827
 31
0.0
  0
LINE
  5
13BC
330
F49
100
AcDbEntity
  8
0
 62
     0
370
    -2
100
AcDbLine
 10
-119.7840604235475
 20
-13.50055135813827
 30
0.0
 11
-131.2628141456807
 21
-13.50055135813827
 31
0.0
  0
SOLID
  5
13BD
330
F49
100
AcDbEntity
  8
0
 62
     0
100
AcDbTrace
 10
-171.7840604235474
 20
-12.50055135813827
 30
0.0
 11
-171.7840604235474
 21
-14.50055135813827
 31
0.0
 12
-177.7840604235475
 22
-13.50055135813827
 32
0.0
 13
-177.7840604235475
 23
-13.50055135813827
 33
0.0
  0
SOLID
  5
13BE
330
F49
100
AcDbEntity
  8
0
 62
     0
100
AcDbTrace
 10
-119.7840604235475
 20
-12.50055135813827
 30
0.0
 11
-119.7840604235475
 21
-14.50055135813827
 31
0.0
 12
-113.7840604235475
 22
-13.50055135813827
 32
0.0
 13
-113.7840604235475
 23
-13.50055135813827
 33
0.0
  0
MTEXT
  5
13BF
330
F49
100
AcDbEntity
  8
0
 62
     0
100
AcDbMText
 10
-141.2694808123474
 20
-13.50055135813827
 30
0.0
 40
7.0
 41
0.0
 71
     5
 72
     1
  1
\A1;64.0
 73
     1
 44
1.0
1001
ACAD
1000
MTEXTBEGIN
1070
    73
1070
     1
1070
    44
1040
1.0
1070
    74
1070
     0
1000
MTEXTEND
  0
POINT
  5
13C0
330
F49
100
AcDbEntity
  8
Defpoints
 62
     0
100
AcDbPoint
 10
-177.7840604235475
 20
102.016228567519
 30
0.0
  0
POINT
  5
13C1
330
F49
100
AcDbEntity
  8
Defpoints
 62
     0
100
AcDbPoint
 10
-113.7840604235475
 20
10.81868893552052
 30
0.0
  0
POINT
  5
13C2
330
F49
100
AcDbEntity
  8
Defpoints
 62
     0
100
AcDbPoint
 10
-113.7840604235475
 20
-13.50055135813827
 30
0.0
  0
ENDBLK
  5
F4B
330
F49
100
AcDbEntity
  8
0
100
AcDbBlockEnd
  0
BLOCK
  5
F57
330
F56
100
AcDbEntity
  8
0
100
AcDbBlockBegin
  2
*D9
 70
     1
 10
0.0
 20
0.0
 30
0.0
  3
*D9
  1

  0
LINE
  5
FE5
330
F56
100
AcDbEntity
  8
0
 62
     0
370
    -2
100
AcDbLine
 10
-113.7840604235475
 20
10.75618893552052
 30
0.0
 11
-113.7840604235475
 21
-13.68055135813827
 31
0.0
  0
LINE
  5
FE6
330
F56
100
AcDbEntity
  8
0
 62
     0
370
    -2
100
AcDbLine
 10
-73.78406042354756
 20
107.638984134121
 30
0.0
 11
-73.78406042354758
 21
-13.68055135813827
 31
0.0
  0
LINE
  5
FE7
330
F56
100
AcDbEntity
  8
0
 62
     0
370
    -2
100
AcDbLine
 10
-107.7840604235475
 20
-13.50055135813827
 30
0.0
 11
-104.842262004363
 21
-13.50055135813827
 31
0.0
  0
LINE
  5
FE8
330
F56
100
AcDbEntity
  8
0
 62
     0
370
    -2
100
AcDbLine
 10
-79.78406042354759
 20
-13.50055135813827
 30
0.0
 11
-85.99559533769634
 21
-13.50055135813827
 31
0.0
  0
SOLID
  5
FE9
330
F56
100
AcDbEntity
  8
0
 62
     0
100
AcDbTrace
 10
-107.7840604235475
 20
-12.50055135813826
 30
0.0
 11
-107.7840604235475
 21
-14.50055135813826
 31
0.0
 12
-113.7840604235475
 22
-13.50055135813827
 32
0.0
 13
-113.7840604235475
 23
-13.50055135813827
 33
0.0
  0
SOLID
  5
FEA
330
F56
100
AcDbEntity
  8
0
 62
     0
100
AcDbTrace
 10
-79.78406042354759
 20
-12.50055135813826
 30
0.0
 11
-79.78406042354759
 21
-14.50055135813826
 31
0.0
 12
-73.78406042354758
 22
-13.50055135813827
 32
0.0
 13
-73.78406042354758
 23
-13.50055135813827
 33
0.0
  0
MTEXT
  5
FEB
330
F56
100
AcDbEntity
  8
0
 62
     0
100
AcDbMText
 10
-95.41892867102966
 20
-13.50055135813827
 30
0.0
 40
7.0
 41
0.0
 71
     5
 72
     1
  1
\A1;40.0
 73
     1
 44
1.0
1001
ACAD
1000
MTEXTBEGIN
1070
    73
1070
     1
1070
    44
1040
1.0
1070
    74
1070
     0
1000
MTEXTEND
  0
POINT
  5
FEC
330
F56
100
AcDbEntity
  8
Defpoints
 62
     0
100
AcDbPoint
 10
-113.7840604235475
 20
10.81868893552052
 30
0.0
  0
POINT
  5
FED
330
F56
100
AcDbEntity
  8
Defpoints
 62
     0
100
AcDbPoint
 10
-73.78406042354756
 20
107.701484134121
 30
0.0
  0
POINT
  5
FEE
330
F56
100
AcDbEntity
  8
Defpoints
 62
     0
100
AcDbPoint
 10
-73.78406042354758
 20
-13.50055135813827
 30
0.0
  0
ENDBLK
  5
F58
330
F56
100
AcDbEntity
  8
0
100
AcDbBlockEnd
  0
BLOCK
  5
10D3
330
10D2
100
AcDbEntity
  8
0
100
AcDbBlockBegin
  2
*D10
 70
     1
 10
0.0
 20
0.0
 30
0.0
  3
*D10
  1

  0
LINE
  5
10D4
330
10D2
100
AcDbEntity
  8
0
 62
     0
370
    -2
100
AcDbLine
 10
-141.2945177876792
 20
68.29439467988561
 30
0.0
 11
-141.2945177876792
 21
-15.56773957702126
 31
0.0
  0
LINE
  5
10D5
330
10D2
100
AcDbEntity
  8
0
 62
     0
370
    -2
100
AcDbLine
 10
-86.32367701007948
 20
8.869000716637543
 30
0.0
 11
-86.32367701007948
 21
-15.56773957702125
 31
0.0
  0
LINE
  5
10D6
330
10D2
100
AcDbEntity
  8
0
 62
     0
370
    -2
100
AcDbLine
 10
-135.2945177876792
 20
-15.38773957702125
 30
0.0
 11
-123.815764065546
 21
-15.38773957702125
 31
0.0
  0
LINE
  5
10D7
330
10D2
100
AcDbEntity
  8
0
 62
     0
370
    -2
100
AcDbLine
 10
-92.3236770100795
 20
-15.38773957702125
 30
0.0
 11
-103.8024307322127
 21
-15.38773957702125
 31
0.0
  0
SOLID
  5
10D8
330
10D2
100
AcDbEntity
  8
0
 62
     0
100
AcDbTrace
 10
-135.2945177876792
 20
-14.38773957702125
 30
0.0
 11
-135.2945177876792
 21
-16.38773957702125
 31
0.0
 12
-141.2945177876792
 22
-15.38773957702125
 32
0.0
 13
-141.2945177876792
 23
-15.38773957702125
 33
0.0
  0
SOLID
  5
10D9
330
10D2
100
AcDbEntity
  8
0
 62
     0
100
AcDbTrace
 10
-92.3236770100795
 20
-14.38773957702125
 30
0.0
 11
-92.3236770100795
 21
-16.38773957702125
 31
0.0
 12
-86.32367701007948
 22
-15.38773957702125
 32
0.0
 13
-86.32367701007948
 23
-15.38773957702125
 33
0.0
  0
MTEXT
  5
10DA
330
10D2
100
AcDbEntity
  8
0
 62
     0
100
AcDbMText
 10
-113.8090973988793
 20
-15.38773957702125
 30
0.0
 40
7.0
 41
0.0
 71
     5
 72
     1
  1
\A1;55.0
 73
     1
 44
1.0
1001
ACAD
1000
MTEXTBEGIN
1070
    73
1070
     1
1070
    44
1040
1.0
1070
    74
1070
     0
1000
MTEXTEND
  0
POINT
  5
10DB
330
10D2
100
AcDbEntity
  8
Defpoints
 62
     0
100
AcDbPoint
 10
-141.2945177876792
 20
68.35689467988562
 30
0.0
  0
POINT
  5
10DC
330
10D2
100
AcDbEntity
  8
Defpoints
 62
     0
100
AcDbPoint
 10
-86.32367701007948
 20
8.931500716637543
 30
0.0
  0
POINT
  5
10DD
330
10D2
100
AcDbEntity
  8
Defpoints
 62
     0
100
AcDbPoint
 10
-86.32367701007948
 20
-15.38773957702125
 30
0.0
  0
ENDBLK
  5
10DE
330
10D2
100
AcDbEntity
  8
0
100
AcDbBlockEnd
  0
BLOCK
  5
11A8
330
11A7
100
AcDbEntity
  8
0
100
AcDbBlockBegin
  2
*D11
 70
     1
 10
0.0
 20
0.0
 30
0.0
  3
*D11
  1

  0
LINE
  5
11CC
330
11A7
100
AcDbEntity
  8
0
 62
     0
370
    -2
100
AcDbLine
 10
-171.6829542044477
 20
99.42081961902331
 30
0.0
 11
-171.6829542044477
 21
15.55868536211642
 31
0.0
  0
LINE
  5
11CD
330
11A7
100
AcDbEntity
  8
0
 62
     0
370
    -2
100
AcDbLine
 10
-116.712113426848
 20
39.99542565577522
 30
0.0
 11
-116.712113426848
 21
15.55868536211643
 31
0.0
  0
LINE
  5
11CE
330
11A7
100
AcDbEntity
  8
0
 62
     0
370
    -2
100
AcDbLine
 10
-165.6829542044477
 20
15.73868536211643
 30
0.0
 11
-154.2042004823145
 21
15.73868536211643
 31
0.0
  0
LINE
  5
11CF
330
11A7
100
AcDbEntity
  8
0
 62
     0
370
    -2
100
AcDbLine
 10
-122.712113426848
 20
15.73868536211643
 30
0.0
 11
-134.1908671489811
 21
15.73868536211643
 31
0.0
  0
SOLID
  5
11D0
330
11A7
100
AcDbEntity
  8
0
 62
     0
100
AcDbTrace
 10
-165.6829542044477
 20
16.73868536211642
 30
0.0
 11
-165.6829542044477
 21
14.73868536211643
 31
0.0
 12
-171.6829542044477
 22
15.73868536211643
 32
0.0
 13
-171.6829542044477
 23
15.73868536211643
 33
0.0
  0
SOLID
  5
11D1
330
11A7
100
AcDbEntity
  8
0
 62
     0
100
AcDbTrace
 10
-122.712113426848
 20
16.73868536211642
 30
0.0
 11
-122.712113426848
 21
14.73868536211643
 31
0.0
 12
-116.712113426848
 22
15.73868536211643
 32
0.0
 13
-116.712113426848
 23
15.73868536211643
 33
0.0
  0
MTEXT
  5
11D2
330
11A7
100
AcDbEntity
  8
0
 62
     0
100
AcDbMText
 10
-144.1975338156478
 20
15.73868536211643
 30
0.0
 40
7.0
 41
0.0
 71
     5
 72
     1
  1
\A1;55.0
 73
     1
 44
1.0
1001
ACAD
1000
MTEXTBEGIN
1070
    73
1070
     1
1070
    44
1040
1.0
1070
    74
1070
     0
1000
MTEXTEND
  0
POINT
  5
11D3
330
11A7
100
AcDbEntity
  8
Defpoints
 62
     0
100
AcDbPoint
 10
-171.6829542044477
 20
99.48331961902329
 30
0.0
  0
POINT
  5
11D4
330
11A7
100
AcDbEntity
  8
Defpoints
 62
     0
100
AcDbPoint
 10
-116.712113426848
 20
40.05792565577521
 30
0.0
  0
POINT
  5
11D5
330
11A7
100
AcDbEntity
  8
Defpoints
 62
     0
100
AcDbPoint
 10
-116.712113426848
 20
15.73868536211643
 30
0.0
  0
ENDBLK
  5
11A9
330
11A7
100
AcDbEntity
  8
0
100
AcDbBlockEnd
  0
BLOCK
  5
14CB
330
14CA
100
AcDbEntity
  8
0
100
AcDbBlockBegin
  2
*D12
 70
     1
 10
0.0
 20
0.0
 30
0.0
  3
*D12
  1

  0
LINE
  5
14CC
330
14CA
100
AcDbEntity
  8
0
 62
     0
370
    -2
100
AcDbLine
 10
-0.0000002106614545
 20
118.8129276222296
 30
0.0
 11
-0.0000002106614525
 21
152.0115445974132
 31
0.0
  0
LINE
  5
14CD
330
14CA
100
AcDbEntity
  8
0
 62
     0
370
    -2
100
AcDbLine
 10
186.9958435337984
 20
118.8129276222296
 30
0.0
 11
186.9958435337984
 21
152.0115445974132
 31
0.0
  0
LINE
  5
14CE
330
14CA
100
AcDbEntity
  8
0
 62
     0
370
    -2
100
AcDbLine
 10
4.999999789338547
 20
151.8315445974132
 30
0.0
 11
88.10730587874784
 21
151.8315445974132
 31
0.0
  0
LINE
  5
14CF
330
14CA
100
AcDbEntity
  8
0
 62
     0
370
    -2
100
AcDbLine
 10
181.9958435337984
 20
151.8315445974132
 30
0.0
 11
104.6720262061694
 21
151.8315445974132
 31
0.0
  0
SOLID
  5
14D0
330
14CA
100
AcDbEntity
  8
0
 62
     0
100
AcDbTrace
 10
4.999999789338547
 20
152.6648779307465
 30
0.0
 11
4.999999789338547
 21
150.9982112640798
 31
0.0
 12
-0.0000002106614525
 22
151.8315445974132
 32
0.0
 13
-0.0000002106614525
 23
151.8315445974132
 33
0.0
  0
SOLID
  5
14D1
330
14CA
100
AcDbEntity
  8
0
 62
     0
100
AcDbTrace
 10
181.9958435337984
 20
152.6648779307465
 30
0.0
 11
181.9958435337984
 21
150.9982112640798
 31
0.0
 12
186.9958435337984
 22
151.8315445974132
 32
0.0
 13
186.9958435337984
 23
151.8315445974132
 33
0.0
  0
MTEXT
  5
14D2
330
14CA
100
AcDbEntity
  8
0
 62
     0
100
AcDbMText
 10
96.38966604245863
 20
151.8315445974132
 30
0.0
 40
5.0
 41
0.0
 71
     5
 72
     1
  1
\A1;187.0
 73
     1
 44
1.0
1001
ACAD
1000
MTEXTBEGIN
1070
    73
1070
     1
1070
    44
1040
1.0
1070
    74
1070
     0
1000
MTEXTEND
  0
POINT
  5
14D3
330
14CA
100
AcDbEntity
  8
Defpoints
 62
     0
100
AcDbPoint
 10
-0.0000002106614545
 20
118.7504276222296
 30
0.0
  0
POINT
  5
14D4
330
14CA
100
AcDbEntity
  8
Defpoints
 62
     0
100
AcDbPoint
 10
186.9958435337984
 20
118.7504276222296
 30
0.0
  0
POINT
  5
14D5
330
14CA
100
AcDbEntity
  8
Defpoints
 62
     0
100
AcDbPoint
 10
186.9958435337984
 20
151.8315445974132
 30
0.0
  0
ENDBLK
  5
14D6
330
14CA
100
AcDbEntity
  8
0
100
AcDbBlockEnd
  0
BLOCK
  5
14D8
330
14D7
100
AcDbEntity
  8
0
100
AcDbBlockBegin
  2
*D13
 70
     1
 10
0.0
 20
0.0
 30
0.0
  3
*D13
  1

  0
LINE
  5
14D9
330
14D7
100
AcDbEntity
  8
0
 62
     0
370
    -2
100
AcDbLine
 10
167.8087713836336
 20
-0.0000002276052555
 30
0.0
 11
206.4800954617526
 21
-0.0000002276052665
 31
0.0
  0
LINE
  5
14DA
330
14D7
100
AcDbEntity
  8
0
 62
     0
370
    -2
100
AcDbLine
 10
167.8712713836336
 20
137.9999997723947
 30
0.0
 11
206.4800954617526
 21
137.9999997723946
 31
0.0
  0
LINE
  5
14DB
330
14D7
100
AcDbEntity
  8
0
 62
     0
370
    -2
100
AcDbLine
 10
206.3000954617526
 20
4.999999772394732
 30
0.0
 11
206.3000954617526
 21
71.8062247179447
 31
0.0
  0
LINE
  5
14DC
330
14D7
100
AcDbEntity
  8
0
 62
     0
370
    -2
100
AcDbLine
 10
206.3000954617526
 20
132.9999997723946
 30
0.0
 11
206.3000954617526
 21
77.09536523636216
 31
0.0
  0
SOLID
  5
14DD
330
14D7
100
AcDbEntity
  8
0
 62
     0
100
AcDbTrace
 10
205.4667621284192
 20
4.999999772394733
 30
0.0
 11
207.1334287950859
 21
4.999999772394732
 31
0.0
 12
206.3000954617526
 22
-0.0000002276052665
 32
0.0
 13
206.3000954617526
 23
-0.0000002276052665
 33
0.0
  0
SOLID
  5
14DE
330
14D7
100
AcDbEntity
  8
0
 62
     0
100
AcDbTrace
 10
205.4667621284192
 20
132.9999997723946
 30
0.0
 11
207.1334287950859
 21
132.9999997723946
 31
0.0
 12
206.3000954617526
 22
137.9999997723946
 32
0.0
 13
206.3000954617526
 23
137.9999997723946
 33
0.0
  0
MTEXT
  5
14DF
330
14D7
100
AcDbEntity
  8
0
 62
     0
100
AcDbMText
 10
206.3000954617526
 20
74.45079497715345
 30
0.0
 40
5.0
 41
0.0
 71
     5
 72
     1
  1
\A1;138.0
 73
     1
 44
1.0
1001
ACAD
1000
MTEXTBEGIN
1070
    73
1070
     1
1070
    44
1040
1.0
1070
    74
1070
     0
1000
MTEXTEND
  0
POINT
  5
14E0
330
14D7
100
AcDbEntity
  8
Defpoints
 62
     0
100
AcDbPoint
 10
167.7462713836336
 20
-0.0000002276052555
 30
0.0
  0
POINT
  5
14E1
330
14D7
100
AcDbEntity
  8
Defpoints
 62
     0
100
AcDbPoint
 10
167.8087713836336
 20
137.9999997723947
 30
0.0
  0
POINT
  5
14E2
330
14D7
100
AcDbEntity
  8
Defpoints
 62
     0
100
AcDbPoint
 10
206.3000954617526
 20
137.9999997723946
 30
0.0
  0
ENDBLK
  5
14E3
330
14D7
100
AcDbEntity
  8
0
100
AcDbBlockEnd
  0
BLOCK
  5
14E5
330
14E4
100
AcDbEntity
  8
0
100
AcDbBlockBegin
  2
*D14
 70
     1
 10
0.0
 20
0.0
 30
0.0
  3
*D14
  1

  0
LINE
  5
14E6
330
14E4
100
AcDbEntity
  8
0
 62
     0
370
    -2
100
AcDbLine
 10
3.999999789338545
 20
2.437499772394956
 30
0.0
 11
3.999999789338544
 21
-14.00739574242782
 31
0.0
  0
LINE
  5
14E7
330
14E4
100
AcDbEntity
  8
0
 62
     0
370
    -2
100
AcDbLine
 10
182.9999997893386
 20
2.437499772394955
 30
0.0
 11
182.9999997893386
 21
-14.00739574242782
 31
0.0
  0
LINE
  5
14E8
330
14E4
100
AcDbEntity
  8
0
 62
     0
370
    -2
100
AcDbLine
 10
8.999999789338543
 20
-13.82739574242782
 30
0.0
 11
89.94964135789976
 21
-13.82739574242782
 31
0.0
  0
LINE
  5
14E9
330
14E4
100
AcDbEntity
  8
0
 62
     0
370
    -2
100
AcDbLine
 10
177.9999997893386
 20
-13.82739574242782
 30
0.0
 11
106.5143616853213
 21
-13.82739574242782
 31
0.0
  0
SOLID
  5
14EA
330
14E4
100
AcDbEntity
  8
0
 62
     0
100
AcDbTrace
 10
8.999999789338543
 20
-12.99406240909449
 30
0.0
 11
8.999999789338543
 21
-14.66072907576116
 31
0.0
 12
3.999999789338544
 22
-13.82739574242782
 32
0.0
 13
3.999999789338544
 23
-13.82739574242782
 33
0.0
  0
SOLID
  5
14EB
330
14E4
100
AcDbEntity
  8
0
 62
     0
100
AcDbTrace
 10
177.9999997893386
 20
-12.99406240909449
 30
0.0
 11
177.9999997893386
 21
-14.66072907576116
 31
0.0
 12
182.9999997893386
 22
-13.82739574242782
 32
0.0
 13
182.9999997893386
 23
-13.82739574242782
 33
0.0
  0
MTEXT
  5
14EC
330
14E4
100
AcDbEntity
  8
0
 62
     0
100
AcDbMText
 10
98.23200152161051
 20
-13.82739574242782
 30
0.0
 40
5.0
 41
0.0
 71
     5
 72
     1
  1
\A1;179.0
 73
     1
 44
1.0
1001
ACAD
1000
MTEXTBEGIN
1070
    73
1070
     1
1070
    44
1040
1.0
1070
    74
1070
     0
1000
MTEXTEND
  0
POINT
  5
14ED
330
14E4
100
AcDbEntity
  8
Defpoints
 62
     0
100
AcDbPoint
 10
3.999999789338545
 20
2.499999772394956
 30
0.0
  0
POINT
  5
14EE
330
14E4
100
AcDbEntity
  8
Defpoints
 62
     0
100
AcDbPoint
 10
182.9999997893386
 20
2.499999772394955
 30
0.0
  0
POINT
  5
14EF
330
14E4
100
AcDbEntity
  8
Defpoints
 62
     0
100
AcDbPoint
 10
182.9999997893386
 20
-13.82739574242782
 30
0.0
  0
ENDBLK
  5
14F0
330
14E4
100
AcDbEntity
  8
0
100
AcDbBlockEnd
  0
BLOCK
  5
14F2
330
14F1
100
AcDbEntity
  8
0
100
AcDbBlockBegin
  2
*D15
 70
     1
 10
0.0
 20
0.0
 30
0.0
  3
*D15
  1

  0
LINE
  5
14F3
330
14F1
100
AcDbEntity
  8
0
 62
     0
370
    -2
100
AcDbLine
 10
3.937499789338545
 20
2.499999772394956
 30
0.0
 11
-16.8102579584783
 21
2.499999772394962
 31
0.0
  0
LINE
  5
14F4
330
14F1
100
AcDbEntity
  8
0
 62
     0
370
    -2
100
AcDbLine
 10
3.999999789338545
 20
135.4999997723947
 30
0.0
 11
-16.81025795847826
 21
135.4999997723947
 31
0.0
  0
LINE
  5
14F5
330
14F1
100
AcDbEntity
  8
0
 62
     0
370
    -2
100
AcDbLine
 10
-16.6302579584783
 20
7.499999772394962
 30
0.0
 11
-16.63025795847828
 21
64.32228688527462
 31
0.0
  0
LINE
  5
14F6
330
14F1
100
AcDbEntity
  8
0
 62
     0
370
    -2
100
AcDbLine
 10
-16.63025795847827
 20
130.4999997723947
 30
0.0
 11
-16.63025795847828
 21
69.61142740369209
 31
0.0
  0
SOLID
  5
14F7
330
14F1
100
AcDbEntity
  8
0
 62
     0
100
AcDbTrace
 10
-17.46359129181163
 20
7.499999772394962
 30
0.0
 11
-15.79692462514496
 21
7.499999772394962
 31
0.0
 12
-16.6302579584783
 22
2.499999772394962
 32
0.0
 13
-16.6302579584783
 23
2.499999772394962
 33
0.0
  0
SOLID
  5
14F8
330
14F1
100
AcDbEntity
  8
0
 62
     0
100
AcDbTrace
 10
-17.4635912918116
 20
130.4999997723947
 30
0.0
 11
-15.79692462514494
 21
130.4999997723947
 31
0.0
 12
-16.63025795847827
 22
135.4999997723947
 32
0.0
 13
-16.63025795847827
 23
135.4999997723947
 33
0.0
  0
MTEXT
  5
14F9
330
14F1
100
AcDbEntity
  8
0
 62
     0
100
AcDbMText
 10
-16.63025795847829
 20
66.96685714448334
 30
0.0
 40
5.0
 41
0.0
 71
     5
 72
     1
  1
\A1;133.0
 73
     1
 44
1.0
1001
ACAD
1000
MTEXTBEGIN
1070
    73
1070
     1
1070
    44
1040
1.0
1070
    74
1070
     0
1000
MTEXTEND
  0
POINT
  5
14FA
330
14F1
100
AcDbEntity
  8
Defpoints
 62
     0
100
AcDbPoint
 10
3.999999789338545
 20
2.499999772394956
 30
0.0
  0
POINT
  5
14FB
330
14F1
100
AcDbEntity
  8
Defpoints
 62
     0
100
AcDbPoint
 10
4.062499789338545
 20
135.4999997723947
 30
0.0
  0
POINT
  5
14FC
330
14F1
100
AcDbEntity
  8
Defpoints
 62
     0
100
AcDbPoint
 10
-16.63025795847827
 20
135.4999997723947
 30
0.0
  0
ENDBLK
  5
14FD
330
14F1
100
AcDbEntity
  8
0
100
AcDbBlockEnd
  0
BLOCK
  5
1524
330
1523
100
AcDbEntity
  8
0
100
AcDbBlockBegin
  2
*D17
 70
     1
 10
0.0
 20
0.0
 30
0.0
  3
*D17
  1

  0
LINE
  5
1586
330
1523
100
AcDbEntity
  8
0
 62
     0
370
    -2
100
AcDbLine
 10
398.8958502031644
 20
135.5691167853564
 30
0.0
 11
398.8958502031644
 21
168.76773376054
 31
0.0
  0
LINE
  5
1587
330
1523
100
AcDbEntity
  8
0
 62
     0
370
    -2
100
AcDbLine
 10
585.8916939476243
 20
135.5691167853564
 30
0.0
 11
585.8916939476243
 21
168.76773376054
 31
0.0
  0
LINE
  5
1588
330
1523
100
AcDbEntity
  8
0
 62
     0
370
    -2
100
AcDbLine
 10
403.8958502031643
 20
168.58773376054
 30
0.0
 11
486.4455164562845
 21
168.58773376054
 31
0.0
  0
LINE
  5
1589
330
1523
100
AcDbEntity
  8
0
 62
     0
370
    -2
100
AcDbLine
 10
580.8916939476242
 20
168.58773376054
 30
0.0
 11
504.1255164562845
 21
168.58773376054
 31
0.0
  0
SOLID
  5
158A
330
1523
100
AcDbEntity
  8
0
 62
     0
100
AcDbTrace
 10
403.8958502031643
 20
169.4210670938734
 30
0.0
 11
403.8958502031643
 21
167.7544004272067
 31
0.0
 12
398.8958502031644
 22
168.58773376054
 32
0.0
 13
398.8958502031644
 23
168.58773376054
 33
0.0
  0
SOLID
  5
158B
330
1523
100
AcDbEntity
  8
0
 62
     0
100
AcDbTrace
 10
580.8916939476242
 20
169.4210670938734
 30
0.0
 11
580.8916939476242
 21
167.7544004272067
 31
0.0
 12
585.8916939476243
 22
168.58773376054
 32
0.0
 13
585.8916939476243
 23
168.58773376054
 33
0.0
  0
MTEXT
  5
158C
330
1523
100
AcDbEntity
  8
0
 62
     0
100
AcDbMText
 10
495.2855164562845
 20
168.58773376054
 30
0.0
 40
5.0
 41
0.0
 71
     5
 72
     1
  1
\A1;187.0
 73
     1
 44
1.0
1001
ACAD
1000
MTEXTBEGIN
1070
    73
1070
     1
1070
    44
1040
1.0
1070
    74
1070
     0
1000
MTEXTEND
  0
POINT
  5
158D
330
1523
100
AcDbEntity
  8
Defpoints
 62
     0
100
AcDbPoint
 10
398.8958502031644
 20
135.5066167853564
 30
0.0
  0
POINT
  5
158E
330
1523
100
AcDbEntity
  8
Defpoints
 62
     0
100
AcDbPoint
 10
585.8916939476243
 20
135.5066167853564
 30
0.0
  0
POINT
  5
158F
330
1523
100
AcDbEntity
  8
Defpoints
 62
     0
100
AcDbPoint
 10
585.8916939476243
 20
168.58773376054
 30
0.0
  0
ENDBLK
  5
1525
330
1523
100
AcDbEntity
  8
0
100
AcDbBlockEnd
  0
BLOCK
  5
1531
330
1530
100
AcDbEntity
  8
0
100
AcDbBlockBegin
  2
*D18
 70
     1
 10
0.0
 20
0.0
 30
0.0
  3
*D18
  1

  0
LINE
  5
1590
330
1530
100
AcDbEntity
  8
0
 62
     0
370
    -2
100
AcDbLine
 10
566.7046217974594
 20
16.75618893552158
 30
0.0
 11
605.3759458755783
 21
16.75618893552156
 31
0.0
  0
LINE
  5
1591
330
1530
100
AcDbEntity
  8
0
 62
     0
370
    -2
100
AcDbLine
 10
566.7671217974595
 20
154.7561889355215
 30
0.0
 11
605.3759458755783
 21
154.7561889355215
 31
0.0
  0
LINE
  5
1592
330
1530
100
AcDbEntity
  8
0
 62
     0
370
    -2
100
AcDbLine
 10
605.1959458755784
 20
21.75618893552156
 30
0.0
 11
605.1959458755784
 21
88.61698414028019
 31
0.0
  0
LINE
  5
1593
330
1530
100
AcDbEntity
  8
0
 62
     0
370
    -2
100
AcDbLine
 10
605.1959458755784
 20
149.7561889355215
 30
0.0
 11
605.1959458755784
 21
93.7969841402802
 31
0.0
  0
SOLID
  5
1594
330
1530
100
AcDbEntity
  8
0
 62
     0
100
AcDbTrace
 10
604.362612542245
 20
21.75618893552156
 30
0.0
 11
606.0292792089118
 21
21.75618893552156
 31
0.0
 12
605.1959458755784
 22
16.75618893552156
 32
0.0
 13
605.1959458755784
 23
16.75618893552156
 33
0.0
  0
SOLID
  5
1595
330
1530
100
AcDbEntity
  8
0
 62
     0
100
AcDbTrace
 10
604.362612542245
 20
149.7561889355215
 30
0.0
 11
606.0292792089118
 21
149.7561889355215
 31
0.0
 12
605.1959458755784
 22
154.7561889355215
 32
0.0
 13
605.1959458755784
 23
154.7561889355215
 33
0.0
  0
MTEXT
  5
1596
330
1530
100
AcDbEntity
  8
0
 62
     0
100
AcDbMText
 10
605.1959458755784
 20
91.20698414028028
 30
0.0
 40
5.0
 41
0.0
 71
     5
 72
     1
  1
\A1;138.0
 73
     1
 44
1.0
1001
ACAD
1000
MTEXTBEGIN
1070
    73
1070
     1
1070
    44
1040
1.0
1070
    74
1070
     0
1000
MTEXTEND
  0
POINT
  5
1597
330
1530
100
AcDbEntity
  8
Defpoints
 62
     0
100
AcDbPoint
 10
566.6421217974594
 20
16.75618893552158
 30
0.0
  0
POINT
  5
1598
330
1530
100
AcDbEntity
  8
Defpoints
 62
     0
100
AcDbPoint
 10
566.7046217974594
 20
154.7561889355215
 30
0.0
  0
POINT
  5
1599
330
1530
100
AcDbEntity
  8
Defpoints
 62
     0
100
AcDbPoint
 10
605.1959458755784
 20
154.7561889355215
 30
0.0
  0
ENDBLK
  5
1532
330
1530
100
AcDbEntity
  8
0
100
AcDbBlockEnd
  0
BLOCK
  5
153E
330
153D
100
AcDbEntity
  8
0
100
AcDbBlockBegin
  2
*D19
 70
     1
 10
0.0
 20
0.0
 30
0.0
  3
*D19
  1

  0
LINE
  5
159A
330
153D
100
AcDbEntity
  8
0
 62
     0
370
    -2
100
AcDbLine
 10
402.8958502031644
 20
19.19368893552179
 30
0.0
 11
402.8958502031644
 21
2.748793420699012
 31
0.0
  0
LINE
  5
159B
330
153D
100
AcDbEntity
  8
0
 62
     0
370
    -2
100
AcDbLine
 10
581.8958502031644
 20
19.19368893552179
 30
0.0
 11
581.8958502031644
 21
2.748793420699012
 31
0.0
  0
LINE
  5
159C
330
153D
100
AcDbEntity
  8
0
 62
     0
370
    -2
100
AcDbLine
 10
407.8958502031643
 20
2.928793420699012
 30
0.0
 11
488.2878519354364
 21
2.928793420699012
 31
0.0
  0
LINE
  5
159D
330
153D
100
AcDbEntity
  8
0
 62
     0
370
    -2
100
AcDbLine
 10
576.8958502031645
 20
2.928793420699012
 30
0.0
 11
505.9678519354363
 21
2.928793420699012
 31
0.0
  0
SOLID
  5
159E
330
153D
100
AcDbEntity
  8
0
 62
     0
100
AcDbTrace
 10
407.8958502031643
 20
3.762126754032345
 30
0.0
 11
407.8958502031643
 21
2.095460087365678
 31
0.0
 12
402.8958502031644
 22
2.928793420699012
 32
0.0
 13
402.8958502031644
 23
2.928793420699012
 33
0.0
  0
SOLID
  5
159F
330
153D
100
AcDbEntity
  8
0
 62
     0
100
AcDbTrace
 10
576.8958502031645
 20
3.762126754032345
 30
0.0
 11
576.8958502031645
 21
2.095460087365678
 31
0.0
 12
581.8958502031644
 22
2.928793420699012
 32
0.0
 13
581.8958502031644
 23
2.928793420699012
 33
0.0
  0
MTEXT
  5
15A0
330
153D
100
AcDbEntity
  8
0
 62
     0
100
AcDbMText
 10
497.1278519354363
 20
2.928793420699012
 30
0.0
 40
5.0
 41
0.0
 71
     5
 72
     1
  1
\A1;179.0
 73
     1
 44
1.0
1001
ACAD
1000
MTEXTBEGIN
1070
    73
1070
     1
1070
    44
1040
1.0
1070
    74
1070
     0
1000
MTEXTEND
  0
POINT
  5
15A1
330
153D
100
AcDbEntity
  8
Defpoints
 62
     0
100
AcDbPoint
 10
402.8958502031644
 20
19.25618893552179
 30
0.0
  0
POINT
  5
15A2
330
153D
100
AcDbEntity
  8
Defpoints
 62
     0
100
AcDbPoint
 10
581.8958502031644
 20
19.25618893552179
 30
0.0
  0
POINT
  5
15A3
330
153D
100
AcDbEntity
  8
Defpoints
 62
     0
100
AcDbPoint
 10
581.8958502031644
 20
2.928793420699012
 30
0.0
  0
ENDBLK
  5
153F
330
153D
100
AcDbEntity
  8
0
100
AcDbBlockEnd
  0
BLOCK
  5
154B
330
154A
100
AcDbEntity
  8
0
100
AcDbBlockBegin
  2
*D20
 70
     1
 10
0.0
 20
0.0
 30
0.0
  3
*D20
  1

  0
LINE
  5
15A4
330
154A
100
AcDbEntity
  8
0
 62
     0
370
    -2
100
AcDbLine
 10
402.8333502031643
 20
19.25618893552179
 30
0.0
 11
382.0855924553476
 21
19.25618893552179
 31
0.0
  0
LINE
  5
15A5
330
154A
100
AcDbEntity
  8
0
 62
     0
370
    -2
100
AcDbLine
 10
402.8958502031644
 20
152.2561889355215
 30
0.0
 11
382.0855924553476
 21
152.2561889355215
 31
0.0
  0
LINE
  5
15A6
330
154A
100
AcDbEntity
  8
0
 62
     0
370
    -2
100
AcDbLine
 10
382.2655924553476
 20
24.2561889355218
 30
0.0
 11
382.2655924553476
 21
81.13304630761012
 31
0.0
  0
LINE
  5
15A7
330
154A
100
AcDbEntity
  8
0
 62
     0
370
    -2
100
AcDbLine
 10
382.2655924553476
 20
147.2561889355215
 30
0.0
 11
382.2655924553476
 21
86.31304630761013
 31
0.0
  0
SOLID
  5
15A8
330
154A
100
AcDbEntity
  8
0
 62
     0
100
AcDbTrace
 10
381.4322591220143
 20
24.2561889355218
 30
0.0
 11
383.0989257886809
 21
24.2561889355218
 31
0.0
 12
382.2655924553476
 22
19.25618893552179
 32
0.0
 13
382.2655924553476
 23
19.25618893552179
 33
0.0
  0
SOLID
  5
15A9
330
154A
100
AcDbEntity
  8
0
 62
     0
100
AcDbTrace
 10
381.4322591220143
 20
147.2561889355215
 30
0.0
 11
383.0989257886809
 21
147.2561889355215
 31
0.0
 12
382.2655924553476
 22
152.2561889355215
 32
0.0
 13
382.2655924553476
 23
152.2561889355215
 33
0.0
  0
MTEXT
  5
15AA
330
154A
100
AcDbEntity
  8
0
 62
     0
100
AcDbMText
 10
382.2655924553476
 20
83.72304630761018
 30
0.0
 40
5.0
 41
0.0
 71
     5
 72
     1
  1
\A1;133.0
 73
     1
 44
1.0
1001
ACAD
1000
MTEXTBEGIN
1070
    73
1070
     1
1070
    44
1040
1.0
1070
    74
1070
     0
1000
MTEXTEND
  0
POINT
  5
15AB
330
154A
100
AcDbEntity
  8
Defpoints
 62
     0
100
AcDbPoint
 10
402.8958502031644
 20
19.25618893552179
 30
0.0
  0
POINT
  5
15AC
330
154A
100
AcDbEntity
  8
Defpoints
 62
     0
100
AcDbPoint
 10
402.9583502031644
 20
152.2561889355215
 30
0.0
  0
POINT
  5
15AD
330
154A
100
AcDbEntity
  8
Defpoints
 62
     0
100
AcDbPoint
 10
382.2655924553476
 20
152.2561889355215
 30
0.0
  0
ENDBLK
  5
154C
330
154A
100
AcDbEntity
  8
0
100
AcDbBlockEnd
  0
ENDSEC
  0
SECTION
  2
ENTITIES
  0
CIRCLE
  5
DA2
330
1F
100
AcDbEntity
  8
0
 62
     7
100
AcDbCircle
 10
151.9877138406985
 20
124.7294201074182
 30
0.0
 40
1.7992031784502
  0
CIRCLE
  5
DA3
330
1F
100
AcDbEntity
  8
0
 62
     7
100
AcDbCircle
 10
151.9877138406985
 20
124.7294201074182
 30
0.0
 40
4.4980079461255
  0
CIRCLE
  5
DA4
330
1F
100
AcDbEntity
  8
0
 62
     7
100
AcDbCircle
 10
167.2809270056734
 20
124.7294201074182
 30
0.0
 40
2.249000510099798
  0
LINE
  5
DA5
330
1F
100
AcDbEntity
  8
0
 62
     7
100
AcDbLine
 10
173.578138130249
 20
102.6708447825837
 30
0.0
 11
173.578138130249
 21
146.787995432254
 31
0.0
  0
LINE
  5
DA6
330
1F
100
AcDbEntity
  8
0
 62
     7
100
AcDbLine
 10
160.9837228070236
 20
102.6708447825837
 30
0.0
 11
160.9837228070236
 21
146.787995432254
 31
0.0
  0
CIRCLE
  5
DA7
330
1F
100
AcDbEntity
  8
0
 62
     7
100
AcDbCircle
 10
167.2809270056734
 20
124.7294201074182
 30
0.0
 40
22.9398301363512
  0
CIRCLE
  5
DA8
330
1F
100
AcDbEntity
  8
0
 62
     7
100
AcDbCircle
 10
167.2809270056734
 20
124.7294201074182
 30
0.0
 40
24.7390333148014
  0
LINE
  5
DA9
330
1F
100
AcDbEntity
  8
0
 62
     7
100
AcDbLine
 10
148.6190612236788
 20
29.35265660926143
 30
0.0
 11
185.942792787668
 21
29.35265660926143
 31
0.0
  0
LINE
  5
DAA
330
1F
100
AcDbEntity
  8
0
 62
     7
100
AcDbLine
 10
191.9949230983463
 20
18.31968435426503
 30
0.0
 11
197.5427074849865
 21
18.31968435426503
 31
0.0
  0
LINE
  5
DAB
330
1F
100
AcDbEntity
  8
0
 62
     7
100
AcDbLine
 10
197.5427074849865
 20
16.74405698979274
 30
0.0
 11
137.0191465263602
 21
16.74405698979274
 31
0.0
  0
ARC
  5
DAC
330
1F
100
AcDbEntity
  8
0
 62
     7
100
AcDbCircle
 10
185.942792787668
 20
23.30052629858307
 30
0.0
 40
6.052130310678297
100
AcDbArc
 50
0.0
 51
90.0
  0
ARC
  5
DAD
330
1F
100
AcDbEntity
  8
0
 62
     7
100
AcDbCircle
 10
148.6190612236788
 20
23.30052629858307
 30
0.0
 40
6.052130310678297
100
AcDbArc
 50
90.0
 51
180.0
  0
LINE
  5
DAE
330
1F
100
AcDbEntity
  8
0
 62
     7
100
AcDbLine
 10
137.0191465263602
 20
16.74405698979274
 30
0.0
 11
137.0191465263602
 21
18.31968435426503
 31
0.0
  0
LINE
  5
DAF
330
1F
100
AcDbEntity
  8
0
 62
     7
100
AcDbLine
 10
197.5427074849865
 20
16.74405698979274
 30
0.0
 11
197.5427074849865
 21
18.31968435426503
 31
0.0
  0
LINE
  5
DB0
330
1F
100
AcDbEntity
  8
0
 62
     7
100
AcDbLine
 10
191.9949230983463
 20
18.31968435426503
 30
0.0
 11
191.9949230983463
 21
23.30052629858307
 31
0.0
  0
LINE
  5
DB1
330
1F
100
AcDbEntity
  8
0
 62
     7
100
AcDbLine
 10
142.5669378389263
 20
18.31968435426503
 30
0.0
 11
142.5669378389263
 21
23.30052629858307
 31
0.0
  0
LINE
  5
DB2
330
1F
100
AcDbEntity
  8
0
 62
     7
100
AcDbLine
 10
137.0191465263602
 20
18.31968435426503
 30
0.0
 11
142.5669378389263
 21
18.31968435426503
 31
0.0
  0
ARC
  5
DB3
330
1F
100
AcDbEntity
  8
0
 62
     7
100
AcDbCircle
 10
124.8793212755071
 20
78.27403809279916
 30
0.0
 40
2.0173767702261
100
AcDbArc
 50
90.0
 51
180.0
  0
ARC
  5
DB4
330
1F
100
AcDbEntity
  8
0
 62
     7
100
AcDbCircle
 10
124.8793212755071
 20
16.72363243431363
 30
0.0
 40
2.0173767702261
100
AcDbArc
 50
180.0
 51
270.0
  0
ARC
  5
DB5
330
1F
100
AcDbEntity
  8
0
 62
     7
100
AcDbCircle
 10
208.0525991863855
 20
16.72363243431363
 30
0.0
 40
2.0173767702261
100
AcDbArc
 50
270.0
 51
0.0
  0
ARC
  5
DB6
330
1F
100
AcDbEntity
  8
0
 62
     7
100
AcDbCircle
 10
208.0525991863855
 20
78.27403809279916
 30
0.0
 40
2.0173767702261
100
AcDbArc
 50
0.0
 51
90.0
  0
LINE
  5
DB7
330
1F
100
AcDbEntity
  8
0
 62
     7
100
AcDbLine
 10
210.0699759566116
 20
16.72363243431363
 30
0.0
 11
210.0699759566116
 21
78.27403809279916
 31
0.0
  0
LINE
  5
DB8
330
1F
100
AcDbEntity
  8
0
 62
     7
100
AcDbLine
 10
122.861944505281
 20
16.72363243431363
 30
0.0
 11
122.861944505281
 21
78.27403809279916
 31
0.0
  0
LINE
  5
DB9
330
1F
100
AcDbEntity
  8
0
 62
     7
100
AcDbLine
 10
124.8793212755071
 20
14.70625566408751
 30
0.0
 11
208.0525991863855
 21
14.70625566408751
 31
0.0
  0
LINE
  5
DBA
330
1F
100
AcDbEntity
  8
0
 62
     7
100
AcDbLine
 10
208.5300101845982
 20
80.29141486302529
 30
0.0
 11
124.8793212755071
 21
80.29141486302529
 31
0.0
  0
LINE
  5
DBB
330
1F
100
AcDbEntity
  8
0
 62
     7
100
AcDbLine
 10
18.02988794178822
 20
155.2563111783316
 30
0.0
 11
18.02988794178822
 21
16.2560666927116
 31
0.0
  0
LINE
  5
DBC
330
1F
100
AcDbEntity
  8
0
 62
     7
100
AcDbLine
 10
214.0298879417882
 20
155.2563111783316
 30
0.0
 11
214.0298879417882
 21
16.2560666927116
 31
0.0
  0
LINE
  5
DBD
330
1F
100
AcDbEntity
  8
0
 62
     7
100
AcDbLine
 10
23.52976569897823
 20
160.7561889355215
 30
0.0
 11
208.5300101845982
 21
160.7561889355215
 31
0.0
  0
LINE
  5
DBE
330
1F
100
AcDbEntity
  8
0
 62
     7
100
AcDbLine
 10
23.52976569897823
 20
10.7561889355216
 30
0.0
 11
208.5300101845982
 21
10.7561889355216
 31
0.0
  0
LINE
  5
DBF
330
1F
100
AcDbEntity
  8
0
 62
     7
100
AcDbLine
 10
23.52976569897823
 20
158.0062500569271
 30
0.0
 11
208.5300101845982
 21
158.0062500569265
 31
0.0
  0
LINE
  5
DC0
330
1F
100
AcDbEntity
  8
0
 62
     7
100
AcDbLine
 10
211.2799490631934
 20
155.2563111783316
 30
0.0
 11
211.2799490631934
 21
16.2560666927116
 31
0.0
  0
LINE
  5
DC1
330
1F
100
AcDbEntity
  8
0
 62
     7
100
AcDbLine
 10
20.77982682038322
 20
155.2563111783316
 30
0.0
 11
20.77982682038322
 21
16.2560666927116
 31
0.0
  0
LINE
  5
DC2
330
1F
100
AcDbEntity
  8
0
 62
     7
100
AcDbLine
 10
23.52976569897823
 20
13.50612781411664
 30
0.0
 11
208.5300101845982
 21
13.5061278141166
 31
0.0
  0
ARC
  5
DC3
330
1F
100
AcDbEntity
  8
0
 62
     7
100
AcDbCircle
 10
23.52976569897823
 20
155.2563111783316
 30
0.0
 40
2.749938878595
100
AcDbArc
 50
90.0
 51
180.0
  0
ARC
  5
DC4
330
1F
100
AcDbEntity
  8
0
 62
     7
100
AcDbCircle
 10
23.52976569897823
 20
155.2563111783316
 30
0.0
 40
5.499877757190001
100
AcDbArc
 50
90.0
 51
180.0
  0
ARC
  5
DC5
330
1F
100
AcDbEntity
  8
0
 62
     7
100
AcDbCircle
 10
208.5300101845982
 20
155.2563111783316
 30
0.0
 40
5.499877757190001
100
AcDbArc
 50
0.0
 51
90.0
  0
ARC
  5
DC6
330
1F
100
AcDbEntity
  8
0
 62
     7
100
AcDbCircle
 10
208.5300101845982
 20
16.2560666927116
 30
0.0
 40
5.499877757190001
100
AcDbArc
 50
270.0
 51
0.0
  0
ARC
  5
DC7
330
1F
100
AcDbEntity
  8
0
 62
     7
100
AcDbCircle
 10
23.52976569897823
 20
16.2560666927116
 30
0.0
 40
5.499877757190001
100
AcDbArc
 50
180.0
 51
270.0
  0
ARC
  5
DC8
330
1F
100
AcDbEntity
  8
0
 62
     7
100
AcDbCircle
 10
208.5300101845982
 20
155.2563111783316
 30
0.0
 40
2.749938878595
100
AcDbArc
 50
0.0
 51
90.0
  0
ARC
  5
DC9
330
1F
100
AcDbEntity
  8
0
 62
     7
100
AcDbCircle
 10
23.52976569897823
 20
16.2560666927116
 30
0.0
 40
2.749938878595
100
AcDbArc
 50
180.0
 51
270.0
  0
ARC
  5
DCA
330
1F
100
AcDbEntity
  8
0
 62
     7
100
AcDbCircle
 10
208.5300101845982
 20
16.2560666927116
 30
0.0
 40
2.749938878595
100
AcDbArc
 50
270.0
 51
0.0
  0
LINE
  5
DCB
330
1F
100
AcDbEntity
  8
0
 62
     7
100
AcDbLine
 10
24.06725032137706
 20
152.9387250811149
 30
0.0
 11
24.06725032137706
 21
151.5736527899283
 31
0.0
  0
LINE
  5
DCC
330
1F
100
AcDbEntity
  8
0
 62
     7
100
AcDbLine
 10
28.99252556219943
 20
152.9387250811149
 30
0.0
 11
28.99252556219943
 21
151.5736527899283
 31
0.0
  0
LINE
  5
DCD
330
1F
100
AcDbEntity
  8
0
 62
     7
100
AcDbLine
 10
27.21242408738124
 20
152.9387250811149
 30
0.0
 11
28.99252556219943
 21
152.9387250811149
 31
0.0
  0
LINE
  5
DCE
330
1F
100
AcDbEntity
  8
0
 62
     7
100
AcDbLine
 10
25.84735179619503
 20
151.5736527899283
 30
0.0
 11
25.84735179619503
 21
148.2182563950819
 31
0.0
  0
LINE
  5
DCF
330
1F
100
AcDbEntity
  8
0
 62
     7
100
AcDbLine
 10
25.84735179619503
 20
151.5736527899283
 30
0.0
 11
24.06725032137706
 21
151.5736527899283
 31
0.0
  0
LINE
  5
DD0
330
1F
100
AcDbEntity
  8
0
 62
     7
100
AcDbLine
 10
27.20659938369954
 20
151.5794774936102
 30
0.0
 11
27.17748279121588
 21
148.2125078765844
 31
0.0
  0
LINE
  5
DD1
330
1F
100
AcDbEntity
  8
0
 62
     7
100
AcDbLine
 10
27.24730997613972
 20
156.2880682167252
 30
0.0
 11
27.21835267995181
 21
152.9387250811149
 31
0.0
  0
LINE
  5
DD2
330
1F
100
AcDbEntity
  8
0
 62
     7
100
AcDbLine
 10
28.99252556219943
 20
151.5736527899283
 30
0.0
 11
27.20654397629221
 21
151.5736527899283
 31
0.0
  0
LINE
  5
DD3
330
1F
100
AcDbEntity
  8
0
 62
     7
100
AcDbLine
 10
25.84735179619503
 20
156.2941214759616
 30
0.0
 11
25.84735179619503
 21
152.9387250811149
 31
0.0
  0
LINE
  5
DD4
330
1F
100
AcDbEntity
  8
0
 62
     7
100
AcDbLine
 10
24.06725032137706
 20
152.9387250811149
 30
0.0
 11
25.84735179619503
 21
152.9387250811149
 31
0.0
  0
LINE
  5
DD8
330
1F
100
AcDbEntity
  8
0
 62
     7
100
AcDbLine
 10
89.52829878525824
 20
27.0106236524539
 30
0.0
 11
45.52927672773819
 21
27.0106236524539
 31
0.0
  0
CIRCLE
  5
DD9
330
1F
100
AcDbEntity
  8
0
 62
     7
100
AcDbCircle
 10
26.52988794178822
 20
152.2561889355215
 30
0.0
 40
4.095209947633298
  0
CIRCLE
  5
DDA
330
1F
100
AcDbEntity
  8
0
 62
     7
100
AcDbCircle
 10
205.5298879417882
 20
152.2561889355215
 30
0.0
 40
4.095209947633298
  0
LINE
  5
DDB
330
1F
100
AcDbEntity
  8
0
 62
     7
100
AcDbLine
 10
206.2124240873815
 20
156.2941214759616
 30
0.0
 11
206.2124240873815
 21
152.9387250811149
 31
0.0
  0
LINE
  5
DDC
330
1F
100
AcDbEntity
  8
0
 62
     7
100
AcDbLine
 10
204.8124659074366
 20
156.2880682167252
 30
0.0
 11
204.8414232036245
 21
152.9387250811149
 31
0.0
  0
LINE
  5
DDD
330
1F
100
AcDbEntity
  8
0
 62
     7
100
AcDbLine
 10
207.9925255621994
 20
152.9387250811149
 30
0.0
 11
207.9925255621994
 21
151.5736527899283
 31
0.0
  0
LINE
  5
DDE
330
1F
100
AcDbEntity
  8
0
 62
     7
100
AcDbLine
 10
206.2124240873815
 20
151.5736527899283
 30
0.0
 11
207.9925255621994
 21
151.5736527899283
 31
0.0
  0
LINE
  5
DDF
330
1F
100
AcDbEntity
  8
0
 62
     7
100
AcDbLine
 10
207.9925255621994
 20
152.9387250811149
 30
0.0
 11
206.2124240873815
 21
152.9387250811149
 31
0.0
  0
LINE
  5
DE0
330
1F
100
AcDbEntity
  8
0
 62
     7
100
AcDbLine
 10
206.2124240873815
 20
151.5736527899283
 30
0.0
 11
206.2124240873815
 21
148.2182563950819
 31
0.0
  0
LINE
  5
DE1
330
1F
100
AcDbEntity
  8
0
 62
     7
100
AcDbLine
 10
203.0672503213771
 20
152.9387250811149
 30
0.0
 11
203.0672503213771
 21
151.5736527899283
 31
0.0
  0
LINE
  5
DE2
330
1F
100
AcDbEntity
  8
0
 62
     7
100
AcDbLine
 10
204.853176499877
 20
151.5794774936102
 30
0.0
 11
204.8822930923606
 21
148.2125078765844
 31
0.0
  0
LINE
  5
DE3
330
1F
100
AcDbEntity
  8
0
 62
     7
100
AcDbLine
 10
204.8473517961951
 20
152.9387250811149
 30
0.0
 11
203.0672503213771
 21
152.9387250811149
 31
0.0
  0
LINE
  5
DE4
330
1F
100
AcDbEntity
  8
0
 62
     7
100
AcDbLine
 10
203.0672503213771
 20
151.5736527899283
 30
0.0
 11
204.8532319072841
 21
151.5736527899283
 31
0.0
  0
CIRCLE
  5
DE5
330
1F
100
AcDbEntity
  8
0
 62
     7
100
AcDbCircle
 10
26.52988794178822
 20
19.25618893552158
 30
0.0
 40
4.095209947633298
  0
LINE
  5
DE6
330
1F
100
AcDbEntity
  8
0
 62
     7
100
AcDbLine
 10
27.24730997613972
 20
15.22430965431787
 30
0.0
 11
27.21835267995181
 21
18.57365278992832
 31
0.0
  0
LINE
  5
DE7
330
1F
100
AcDbEntity
  8
0
 62
     7
100
AcDbLine
 10
25.84735179619503
 20
15.2182563950813
 30
0.0
 11
25.84735179619503
 21
18.57365278992832
 31
0.0
  0
LINE
  5
DE8
330
1F
100
AcDbEntity
  8
0
 62
     7
100
AcDbLine
 10
28.99252556219943
 20
19.93872508111474
 30
0.0
 11
27.20654397629221
 21
19.93872508111474
 31
0.0
  0
LINE
  5
DE9
330
1F
100
AcDbEntity
  8
0
 62
     7
100
AcDbLine
 10
27.21242408738124
 20
18.57365278992832
 30
0.0
 11
28.99252556219943
 21
18.57365278992832
 31
0.0
  0
LINE
  5
DEA
330
1F
100
AcDbEntity
  8
0
 62
     7
100
AcDbLine
 10
28.99252556219943
 20
18.57365278992832
 30
0.0
 11
28.99252556219943
 21
19.93872508111474
 31
0.0
  0
LINE
  5
DEB
330
1F
100
AcDbEntity
  8
0
 62
     7
100
AcDbLine
 10
24.06725032137706
 20
18.57365278992832
 30
0.0
 11
25.84735179619503
 21
18.57365278992832
 31
0.0
  0
LINE
  5
DEC
330
1F
100
AcDbEntity
  8
0
 62
     7
100
AcDbLine
 10
25.84735179619503
 20
19.93872508111474
 30
0.0
 11
24.06725032137706
 21
19.93872508111474
 31
0.0
  0
LINE
  5
DED
330
1F
100
AcDbEntity
  8
0
 62
     7
100
AcDbLine
 10
24.06725032137706
 20
18.57365278992832
 30
0.0
 11
24.06725032137706
 21
19.93872508111474
 31
0.0
  0
LINE
  5
DEE
330
1F
100
AcDbEntity
  8
0
 62
     7
100
AcDbLine
 10
27.20659938369954
 20
19.93290037743288
 30
0.0
 11
27.17748279121588
 21
23.29986999445881
 31
0.0
  0
LINE
  5
DEF
330
1F
100
AcDbEntity
  8
0
 62
     7
100
AcDbLine
 10
25.84735179619503
 20
19.93872508111474
 30
0.0
 11
25.84735179619503
 21
23.29412147596116
 31
0.0
  0
CIRCLE
  5
DF0
330
1F
100
AcDbEntity
  8
0
 62
     7
100
AcDbCircle
 10
205.5298879417882
 20
19.25618893552158
 30
0.0
 40
4.095209947633298
  0
LINE
  5
DF1
330
1F
100
AcDbEntity
  8
0
 62
     7
100
AcDbLine
 10
204.8124659074366
 20
15.22430965431787
 30
0.0
 11
204.8414232036245
 21
18.57365278992832
 31
0.0
  0
LINE
  5
DF2
330
1F
100
AcDbEntity
  8
0
 62
     7
100
AcDbLine
 10
203.0672503213771
 20
18.57365278992832
 30
0.0
 11
203.0672503213771
 21
19.93872508111474
 31
0.0
  0
LINE
  5
DF3
330
1F
100
AcDbEntity
  8
0
 62
     7
100
AcDbLine
 10
204.853176499877
 20
19.93290037743288
 30
0.0
 11
204.8822930923606
 21
23.29986999445881
 31
0.0
  0
LINE
  5
DF4
330
1F
100
AcDbEntity
  8
0
 62
     7
100
AcDbLine
 10
204.8473517961951
 20
18.57365278992832
 30
0.0
 11
203.0672503213771
 21
18.57365278992832
 31
0.0
  0
LINE
  5
DF5
330
1F
100
AcDbEntity
  8
0
 62
     7
100
AcDbLine
 10
203.0672503213771
 20
19.93872508111474
 30
0.0
 11
204.8532319072841
 21
19.93872508111474
 31
0.0
  0
LINE
  5
DF6
330
1F
100
AcDbEntity
  8
0
 62
     7
100
AcDbLine
 10
206.2124240873815
 20
15.2182563950813
 30
0.0
 11
206.2124240873815
 21
18.57365278992832
 31
0.0
  0
LINE
  5
DF7
330
1F
100
AcDbEntity
  8
0
 62
     7
100
AcDbLine
 10
207.9925255621994
 20
18.57365278992832
 30
0.0
 11
207.9925255621994
 21
19.93872508111474
 31
0.0
  0
LINE
  5
DF8
330
1F
100
AcDbEntity
  8
0
 62
     7
100
AcDbLine
 10
206.2124240873815
 20
19.93872508111474
 30
0.0
 11
207.9925255621994
 21
19.93872508111474
 31
0.0
  0
LINE
  5
DF9
330
1F
100
AcDbEntity
  8
0
 62
     7
100
AcDbLine
 10
207.9925255621994
 20
18.57365278992832
 30
0.0
 11
206.2124240873815
 21
18.57365278992832
 31
0.0
  0
LINE
  5
DFA
330
1F
100
AcDbEntity
  8
0
 62
     7
100
AcDbLine
 10
206.2124240873815
 20
19.93872508111474
 30
0.0
 11
206.2124240873815
 21
23.29412147596116
 31
0.0
  0
CIRCLE
  5
E1A
330
1F
100
AcDbEntity
  8
0
 62
     7
100
AcDbCircle
 10
139.7930421826433
 20
51.16350126534404
 30
0.0
 40
9.851341735613726
  0
CIRCLE
  5
E1B
330
1F
100
AcDbEntity
  8
0
 62
     7
100
AcDbCircle
 10
194.7688152916664
 20
51.16350126534413
 30
0.0
 40
9.851341735613726
  0
LINE
  5
E3A
330
1F
100
AcDbEntity
  8
0
 62
     7
100
AcDbLine
 10
45.52927669018958
 20
47.6460090601872
 30
0.0
 11
45.52927669018958
 21
27.01062359427108
 31
0.0
  0
LINE
  5
E3B
330
1F
100
AcDbEntity
  8
0
 62
     7
100
AcDbLine
 10
89.52829874770978
 20
47.6460090601872
 30
0.0
 11
89.52829874770969
 21
27.01062359427108
 31
0.0
  0
LINE
  5
E3C
330
1F
100
AcDbEntity
  8
0
 62
     7
100
AcDbLine
 10
89.52829874770978
 20
47.6460090601872
 30
0.0
 11
45.52927669018967
 21
47.6460090601872
 31
0.0
  0
LINE
  5
EA6
330
1F
100
AcDbEntity
  8
0
 62
     7
100
AcDbLine
 10
-113.7840604235475
 20
160.7561889355205
 30
0.0
 11
-113.7840604235475
 21
160.7561889355205
 31
0.0
  0
LINE
  5
EA7
330
1F
100
AcDbEntity
  8
0
 62
     7
100
AcDbLine
 10
-113.7840604235475
 20
10.75618893552052
 30
0.0
 11
-113.7840604235475
 21
10.75618893552052
 31
0.0
  0
LINE
  5
EA8
330
1F
100
AcDbEntity
  8
0
 62
     7
100
AcDbLine
 10
-113.7840604235475
 20
160.7561889355205
 30
0.0
 11
-113.7840604235475
 21
10.75618893552052
 31
0.0
  0
LINE
  5
EA9
330
1F
100
AcDbEntity
  8
0
 62
     7
100
AcDbLine
 10
-116.5339993021425
 20
158.0062500569265
 30
0.0
 11
-116.5339993021425
 21
14.8810972534136
 31
0.0
  0
LINE
  5
EAA
330
1F
100
AcDbEntity
  8
0
 62
     7
100
AcDbLine
 10
-116.5339993021425
 20
156.6312806176285
 30
0.0
 11
-130.6585162372722
 21
156.6312802932263
 31
0.0
  0
ARC
  5
EAB
330
1F
100
AcDbEntity
  8
0
 62
     7
100
AcDbCircle
 10
-113.7840604235475
 20
158.0062500569265
 30
0.0
 40
2.749938878595
100
AcDbArc
 50
89.99999999999348
 51
180.0
  0
ARC
  5
EAC
330
1F
100
AcDbEntity
  8
0
 62
     7
100
AcDbCircle
 10
-113.6529271339177
 20
13.82271158041857
 30
0.0
 40
3.06932518174925
100
AcDbArc
 50
159.828774805459
 51
267.5513602465038
  0
LINE
  5
EAD
330
1F
100
AcDbEntity
  8
0
 62
     7
100
AcDbLine
 10
-132.308479526534
 20
154.9813169660693
 30
0.0
 11
-132.308479526534
 21
87.88280832835129
 31
0.0
  0
ARC
  5
EAE
330
1F
100
AcDbEntity
  8
0
 62
     7
100
AcDbCircle
 10
-130.658516199377
 20
154.9813169660693
 30
0.0
 40
1.649963327156999
100
AcDbArc
 50
89.99999999999348
 51
180.0
  0
ARC
  5
EAF
330
1F
100
AcDbEntity
  8
0
 62
     7
100
AcDbCircle
 10
-130.658516199377
 20
16.53106025616832
 30
0.0
 40
1.649963327156999
100
AcDbArc
 50
180.0
 51
269.9999999999821
  0
LINE
  5
EB0
330
1F
100
AcDbEntity
  8
0
 62
     7
100
AcDbLine
 10
-132.308479526534
 20
16.53106025616832
 30
0.0
 11
-132.308479526534
 21
87.88280832835129
 31
0.0
  0
LINE
  5
EB1
330
1F
100
AcDbEntity
  8
0
 62
     7
100
AcDbLine
 10
-116.5339994213143
 20
14.88109692901135
 30
0.0
 11
-130.6585161993776
 21
14.88109692901132
 31
0.0
  0
LINE
  5
EB2
330
1F
100
AcDbEntity
  8
0
 62
     7
100
AcDbLine
 10
-84.78381593792756
 20
99.97997020006209
 30
0.0
 11
-113.7840604235476
 21
99.97997020006209
 31
0.0
  0
LINE
  5
EB3
330
1F
100
AcDbEntity
  8
0
 62
     7
100
AcDbLine
 10
-73.78406042354756
 20
107.701484134121
 30
0.0
 11
-84.78381593792756
 21
107.701484134121
 31
0.0
  0
LINE
  5
EB4
330
1F
100
AcDbEntity
  8
0
 62
     7
100
AcDbLine
 10
-73.78406042354756
 20
116.4796034716321
 30
0.0
 11
-113.7840604235476
 21
116.4796034716321
 31
0.0
  0
LINE
  5
EB5
330
1F
100
AcDbEntity
  8
0
 62
     7
100
AcDbLine
 10
-73.78406042354756
 20
124.7294201074182
 30
0.0
 11
-113.7840604235476
 21
124.7294201074182
 31
0.0
  0
LINE
  5
EB6
330
1F
100
AcDbEntity
  8
0
 62
     7
100
AcDbLine
 10
-73.78406042354756
 20
132.979236743203
 30
0.0
 11
-113.7840604235476
 21
132.979236743203
 31
0.0
  0
LINE
  5
EB7
330
1F
100
AcDbEntity
  8
0
 62
     7
100
AcDbLine
 10
-73.78406042354756
 20
141.2290533789871
 30
0.0
 11
-84.78381593792756
 21
141.2290533789871
 31
0.0
  0
LINE
  5
EB8
330
1F
100
AcDbEntity
  8
0
 62
     7
100
AcDbLine
 10
-73.78406042354756
 20
141.2290533789871
 30
0.0
 11
-73.78406042354756
 21
107.701484134121
 31
0.0
  0
LINE
  5
EB9
330
1F
100
AcDbEntity
  8
0
 62
     7
100
AcDbLine
 10
-84.78381593792756
 20
108.2297868358481
 30
0.0
 11
-84.78381593792756
 21
99.97997020006209
 31
0.0
  0
LINE
  5
EBA
330
1F
100
AcDbEntity
  8
0
 62
     7
100
AcDbLine
 10
-84.78381593792756
 20
108.2297868358481
 30
0.0
 11
-113.7840604235476
 21
108.2297868358481
 31
0.0
  0
LINE
  5
EBB
330
1F
100
AcDbEntity
  8
0
 62
     7
100
AcDbLine
 10
-84.78381593792756
 20
140.7007506772611
 30
0.0
 11
-113.7840604235476
 21
140.7007506772611
 31
0.0
  0
LINE
  5
EBC
330
1F
100
AcDbEntity
  8
0
 62
     7
100
AcDbLine
 10
-84.78381593792756
 20
140.7007506772611
 30
0.0
 11
-84.78381593792756
 21
148.9505673130461
 31
0.0
  0
LINE
  5
EBD
330
1F
100
AcDbEntity
  8
0
 62
     7
100
AcDbLine
 10
-84.78381593792756
 20
148.9505673130461
 30
0.0
 11
-113.7840604235476
 21
148.9505673130461
 31
0.0
  0
LINE
  5
EBF
330
1F
100
AcDbEntity
  8
0
 62
     7
100
AcDbLine
 10
-101.7690120224946
 20
131.6474019704101
 30
0.0
 11
-84.72434993815005
 21
131.6474019704101
 31
0.0
  0
LINE
  5
EC0
330
1F
100
AcDbEntity
  8
0
 62
     7
100
AcDbLine
 10
-84.72434993815005
 20
126.0493907691431
 30
0.0
 11
-101.7690120224946
 21
126.0493907691431
 31
0.0
  0
LINE
  5
EC1
330
1F
100
AcDbEntity
  8
0
 62
     7
100
AcDbLine
 10
-101.7690120224946
 20
131.6474019704101
 30
0.0
 11
-101.7690120224946
 21
126.0493907691431
 31
0.0
  0
LINE
  5
EC2
330
1F
100
AcDbEntity
  8
0
 62
     7
100
AcDbLine
 10
-84.72434993815005
 20
131.6474019704101
 30
0.0
 11
-84.72434993815005
 21
126.0493907691431
 31
0.0
  0
LINE
  5
EC3
330
1F
100
AcDbEntity
  8
0
 62
     7
100
AcDbLine
 10
-100.0513339178133
 20
147.6187325402541
 30
0.0
 11
-100.0513339178133
 21
142.0207213389871
 31
0.0
  0
LINE
  5
EC4
330
1F
100
AcDbEntity
  8
0
 62
     7
100
AcDbLine
 10
-100.0513339178133
 20
142.0207213389871
 30
0.0
 11
-113.7840604235476
 21
142.0207213389871
 31
0.0
  0
LINE
  5
EC5
330
1F
100
AcDbEntity
  8
0
 62
     7
100
AcDbLine
 10
-113.7840604235476
 20
147.6187325402541
 30
0.0
 11
-100.0513339178133
 21
147.6187325402541
 31
0.0
  0
LINE
  5
EDE
330
1F
100
AcDbEntity
  8
0
 62
     7
100
AcDbLine
 10
-84.78381593792756
 20
63.7168856920735
 30
0.0
 11
-113.7840604235475
 21
63.7168856920735
 31
0.0
  0
LINE
  5
EDF
330
1F
100
AcDbEntity
  8
0
 62
     7
100
AcDbLine
 10
-76.35640083163365
 20
55.4670690562885
 30
0.0
 11
-113.7840604235475
 21
55.4670690562885
 31
0.0
  0
LINE
  5
EE0
330
1F
100
AcDbEntity
  8
0
 62
     7
100
AcDbLine
 10
-76.35640083163365
 20
47.74555512223055
 30
0.0
 11
-113.7840604235475
 21
47.74555512223055
 31
0.0
  0
LINE
  5
EE1
330
1F
100
AcDbEntity
  8
0
 62
     7
100
AcDbLine
 10
-76.35640083163365
 20
39.49573848644554
 30
0.0
 11
-113.7840604235475
 21
39.49573848644554
 31
0.0
  0
LINE
  5
EE2
330
1F
100
AcDbEntity
  8
0
 62
     7
100
AcDbLine
 10
-76.35640083163365
 20
31.24592185066053
 30
0.0
 11
-113.7840604235475
 21
31.24592185066053
 31
0.0
  0
LINE
  5
EE3
330
1F
100
AcDbEntity
  8
0
 62
     7
100
AcDbLine
 10
-84.78381593792756
 20
55.4670690562885
 30
0.0
 11
-84.78381593792756
 21
63.7168856920735
 31
0.0
  0
LINE
  5
EE4
330
1F
100
AcDbEntity
  8
0
 62
     7
100
AcDbLine
 10
-76.35640083163365
 20
55.4670690562885
 30
0.0
 11
-76.35640083163365
 21
31.24592185066053
 31
0.0
  0
LINE
  5
EE8
330
1F
100
AcDbEntity
  8
0
 62
     7
100
AcDbLine
 10
-100.0513339178133
 20
106.8979520630551
 30
0.0
 11
-100.0513339178133
 21
101.2999408617881
 31
0.0
  0
LINE
  5
EE9
330
1F
100
AcDbEntity
  8
0
 62
     7
100
AcDbLine
 10
-100.0513339178133
 20
101.2999408617881
 30
0.0
 11
-113.7840604235476
 21
101.2999408617881
 31
0.0
  0
LINE
  5
EEA
330
1F
100
AcDbEntity
  8
0
 62
     7
100
AcDbLine
 10
-113.7840604235476
 20
106.8979520630551
 30
0.0
 11
-100.0513339178133
 21
106.8979520630551
 31
0.0
  0
DIMENSION
  5
F2B
330
1F
100
AcDbEntity
  8
0
 62
     1
100
AcDbDimension
  2
*D6
 10
214.0298879417882
 20
-13.21285912244497
 30
0.0
 11
121.7755786392675
 21
-13.21285912244497
 31
0.0
 70
   160
 71
     0
 42
196.0
  3
Standard
100
AcDbAlignedDimension
 13
18.02988794178822
 23
16.3185666927116
 33
0.0
 14
214.0298879417882
 24
16.2560666927116
 34
0.0
100
AcDbRotatedDimension
1001
ACAD
1000
DSTYLE
1002
{
1070
    41
1040
6.0
1070
   140
1040
7.0
1070
   271
1070
     1
1002
}
  0
DIMENSION
  5
F2C
330
1F
100
AcDbEntity
  8
0
 62
     1
100
AcDbDimension
  2
*D7
 10
262.5756963404687
 20
160.7561889355215
 30
0.0
 11
262.5756963404686
 21
101.8898145423452
 31
0.0
 70
   160
 71
     0
 42
149.9999999999999
  3
Standard
100
AcDbAlignedDimension
 13
208.4702903845982
 23
10.7561889355216
 33
0.0
 14
208.4675101845982
 24
160.7561889355215
 34
0.0
 50
90.0
100
AcDbRotatedDimension
1001
ACAD
1000
DSTYLE
1002
{
1070
    41
1040
6.0
1070
   140
1040
7.0
1070
   271
1070
     1
1002
}
  0
DIMENSION
  5
F2D
330
1F
100
AcDbEntity
  8
0
 62
     1
100
AcDbDimension
  2
*D8
 10
-113.7840604235475
 20
-13.50055135813827
 30
0.0
 11
-141.2694808123474
 21
-13.50055135813827
 31
0.0
 70
   160
 71
     0
 42
63.99999999999998
  3
Standard
100
AcDbAlignedDimension
 13
-177.7840604235475
 23
102.016228567519
 33
0.0
 14
-113.7840604235475
 24
10.81868893552052
 34
0.0
100
AcDbRotatedDimension
1001
ACAD
1000
DSTYLE
1002
{
1070
    41
1040
6.0
1070
   140
1040
7.0
1070
   271
1070
     1
1002
}
  0
DIMENSION
  5
F2E
330
1F
100
AcDbEntity
  8
0
 62
     1
100
AcDbDimension
  2
*D9
 10
-73.78406042354758
 20
-13.50055135813827
 30
0.0
 11
-95.41892867102966
 21
-13.50055135813827
 31
0.0
 70
   160
 71
     0
 42
40.0
  3
Standard
100
AcDbAlignedDimension
 13
-113.7840604235475
 23
10.81868893552052
 33
0.0
 14
-73.78406042354756
 24
107.701484134121
 34
0.0
100
AcDbRotatedDimension
1001
ACAD
1000
DSTYLE
1002
{
1070
    41
1040
6.0
1070
   140
1040
7.0
1070
   271
1070
     1
1002
}
  0
CIRCLE
  5
125C
330
1F
100
AcDbEntity
  8
0
 62
     7
100
AcDbCircle
 10
167.2809270056735
 20
51.16350126534393
 30
0.0
 40
9.851341735613726
  0
LINE
  5
1351
330
1F
100
AcDbEntity
  8
0
 62
     7
100
AcDbLine
 10
-132.308479526534
 20
154.9813169660693
 30
0.0
 11
-132.308479526534
 21
87.8828083283513
 31
0.0
  0
ARC
  5
1352
330
1F
100
AcDbEntity
  8
0
 62
     7
100
AcDbCircle
 10
-130.658516199377
 20
154.9813169660693
 30
0.0
 40
1.649963327156999
100
AcDbArc
 50
89.99999999999348
 51
180.0
  0
LINE
  5
1353
330
1F
100
AcDbEntity
  8
0
 62
     7
 48
0.4125
370
    70
100
AcDbLine
 10
37.22072857868653
 20
146.4116580353485
 30
0.0
 11
83.02897212244237
 21
146.4276960353485
 31
0.0
  0
CIRCLE
  5
1354
330
1F
100
AcDbEntity
  8
0
 62
     7
370
    70
100
AcDbCircle
 10
-154.758466016066
 20
138.1184815341115
 30
0.0
 40
2.774999999999995
  0
LINE
  5
1355
330
1F
100
AcDbEntity
  8
0
 62
     7
 48
0.154383
370
    70
100
AcDbLine
 10
-163.4136480696374
 20
116.8025615162543
 30
0.0
 11
-163.7003960874947
 21
112.7325205519684
 31
0.0
  0
LINE
  5
1356
330
1F
100
AcDbEntity
  8
0
 62
     7
 48
0.055837
370
    70
100
AcDbLine
 10
-163.8517023017804
 20
130.9568936769685
 30
0.0
 11
-162.3983878910661
 21
131.2129237662543
 31
0.0
  0
LINE
  5
1357
330
1F
100
AcDbEntity
  8
0
 62
     7
 48
0.25872
370
    70
100
AcDbLine
 10
-162.5130614624947
 20
105.99881060554
 30
0.0
 11
-163.7003960874947
 21
112.7325205519684
 31
0.0
  0
LINE
  5
1358
330
1F
100
AcDbEntity
  8
0
 62
     7
 48
0.284875
370
    70
100
AcDbLine
 10
-163.3094369089232
 20
143.9906900876826
 30
0.0
 11
-155.8729919089232
 21
145.1666194626826
 31
0.0
  0
LINE
  5
1359
330
1F
100
AcDbEntity
  8
0
 62
     7
 48
0.259026
370
    70
100
AcDbLine
 10
-155.349094373209
 20
65.36993649839725
 30
0.0
 11
-152.9716131232088
 21
51.88656564125443
 31
0.0
  0
LINE
  5
135A
330
1F
100
AcDbEntity
  8
0
 62
     7
 48
0.00401
370
    70
100
AcDbLine
 10
-155.349094373209
 20
65.36993649839725
 30
0.0
 11
-155.3859001232089
 21
65.57867067696864
 31
0.0
  0
LINE
  5
135B
330
1F
100
AcDbEntity
  8
0
 62
     7
370
    70
100
AcDbLine
 10
-162.5130608017804
 20
105.99881060554
 30
0.0
 11
-155.3859001232089
 21
65.57867067696864
 31
0.0
  0
LINE
  5
135C
330
1F
100
AcDbEntity
  8
0
 62
     7
 48
0.037912
370
    70
100
AcDbLine
 10
-165.6156442660662
 20
143.5004909626826
 30
0.0
 11
-167.5757972303519
 21
143.0838471769684
 31
0.0
  0
LINE
  5
135D
330
1F
100
AcDbEntity
  8
0
 62
     7
 48
0.043885
370
    70
100
AcDbLine
 10
-163.3094369089232
 20
143.9906907483971
 30
0.0
 11
-165.5783786589232
 21
143.5084116055399
 31
0.0
  0
ARC
  5
135E
330
1F
100
AcDbEntity
  8
0
 62
     7
370
    70
100
AcDbCircle
 10
-164.7368836946376
 20
140.8372283198256
 30
0.0
 40
0.660749964285714
100
AcDbArc
 50
100.011645999998
 51
168.0042080000003
  0
LINE
  5
135F
330
1F
100
AcDbEntity
  8
0
 62
     7
 48
0.188184
370
    70
100
AcDbLine
 10
-167.4509790517803
 20
131.2450073912542
 30
0.0
 11
-165.383207623209
 21
140.97455910554
 31
0.0
  0
ARC
  5
1360
330
1F
100
AcDbEntity
  8
0
 62
     7
370
    70
100
AcDbCircle
 10
-166.8046723017804
 20
131.1075669269684
 30
0.0
 40
0.6607420357142853
100
AcDbArc
 50
167.9945430000005
 51
279.9807399999977
  0
LINE
  5
1361
330
1F
100
AcDbEntity
  8
0
 62
     7
 48
0.025555
370
    70
100
AcDbLine
 10
-163.3330111946376
 20
142.6401326055398
 30
0.0
 11
-163.3094369089232
 21
143.9906907483971
 31
0.0
  0
ARC
  5
1362
330
1F
100
AcDbEntity
  8
0
 62
     7
370
    70
100
AcDbCircle
 10
-105.136165766066
 20
99.90475071268285
 30
0.0
 40
69.8754461428571
100
AcDbArc
 50
178.5256290000003
 51
201.4743889999997
  0
LINE
  5
1363
330
1F
100
AcDbEntity
  8
0
 62
     7
 48
0.049034
370
    70
100
AcDbLine
 10
-175.0766222303518
 20
102.3323127841114
 30
0.0
 11
-177.7840604235475
 21
102.016228567519
 31
0.0
  0
LINE
  5
1364
330
1F
100
AcDbEntity
  8
0
 62
     7
 48
0.000096
370
    70
100
AcDbLine
 10
-174.9884789803519
 20
101.7026097841114
 30
0.0
 11
-174.9935744089232
 21
101.7027419269685
 31
0.0
  0
LINE
  5
1365
330
1F
100
AcDbEntity
  8
0
 62
     7
 48
0.000096
370
    70
100
AcDbLine
 10
-170.160964766066
 20
74.32441749839724
 30
0.0
 11
-170.1657086946374
 21
74.32255164125423
 31
0.0
  0
LINE
  5
1366
330
1F
100
AcDbEntity
  8
0
 62
     7
 48
0.049034
370
    70
100
AcDbLine
 10
-172.5808255517805
 20
73.25248653411143
 30
0.0
 11
-170.028421516066
 21
73.70254396268285
 31
0.0
  0
LINE
  5
1367
330
1F
100
AcDbEntity
  8
0
 62
     7
 48
0.054527
370
    70
100
AcDbLine
 10
-166.690158623209
 20
130.4568426412542
 30
0.0
 11
-163.8517023017804
 21
130.9568936769685
 31
0.0
  0
LINE
  5
1368
330
1F
100
AcDbEntity
  8
0
 62
     7
 48
0.024758
370
    70
100
AcDbLine
 10
-164.8517541589232
 20
141.4879156055401
 30
0.0
 11
-163.5630454803519
 21
141.7153519626825
 31
0.0
  0
LINE
  5
1369
330
1F
100
AcDbEntity
  8
0
 62
     7
 48
0.000857
370
    70
100
AcDbLine
 10
-163.5630454803519
 20
141.7153519626825
 30
0.0
 11
-163.5638356946376
 21
141.6700851055398
 31
0.0
  0
LINE
  5
136A
330
1F
100
AcDbEntity
  8
0
 62
     7
 48
0.01266
370
    70
100
AcDbLine
 10
-163.3446899803521
 20
141.971054998397
 30
0.0
 11
-163.3330111946376
 21
142.6401326055398
 31
0.0
  0
ARC
  5
136B
330
1F
100
AcDbEntity
  8
0
 62
     7
370
    70
100
AcDbCircle
 10
-163.6089968374947
 20
141.9756747126827
 30
0.0
 40
0.2643478214285712
100
AcDbArc
 50
280.0107359999989
 51
358.9984710000007
  0
LINE
  5
136C
330
1F
100
AcDbEntity
  8
0
 62
     7
 48
0.000815
370
    70
100
AcDbLine
 10
-163.3446899803521
 20
141.971054998397
 30
0.0
 11
-163.3454405517805
 21
141.9280041769684
 31
0.0
  0
LINE
  5
136D
330
1F
100
AcDbEntity
  8
0
 62
     7
 48
0.112083
370
    70
100
AcDbLine
 10
-158.8230851589232
 20
50.95978303411157
 30
0.0
 11
-152.9716131232088
 21
51.88656564125443
 31
0.0
  0
ARC
  5
136E
330
1F
100
AcDbEntity
  8
0
 62
     7
370
    70
100
AcDbCircle
 10
-158.9264433374947
 20
51.61236789125442
 30
0.0
 40
0.6607195714285714
100
AcDbArc
 50
217.0663470000013
 51
278.9999079999996
  0
ARC
  5
136F
330
1F
100
AcDbEntity
  8
0
 62
     7
370
    70
100
AcDbCircle
 10
-105.1361736946375
 20
99.90475335554002
 30
0.0
 40
72.67856349999992
100
AcDbArc
 50
162.7305499999998
 51
164.1117509999987
  0
ARC
  5
1370
330
1F
100
AcDbEntity
  8
0
 62
     7
370
    70
100
AcDbCircle
 10
-105.1361710517802
 20
99.90474806982565
 30
0.0
 40
72.67856614285706
100
AcDbArc
 50
215.8882489999983
 51
217.2654789999996
  0
LINE
  5
1371
330
1F
100
AcDbEntity
  8
0
 62
     7
 48
0.110819
370
    70
100
AcDbLine
 10
-159.4552671589233
 20
51.21626571268301
 30
0.0
 11
-162.9765677303518
 21
55.89722160554007
 31
0.0
  0
LINE
  5
1372
330
1F
100
AcDbEntity
  8
0
 62
     7
 48
0.039294
370
    70
100
AcDbLine
 10
-173.9321236946376
 20
123.4670365341115
 30
0.0
 11
-174.5383290517804
 21
121.4805303198255
 31
0.0
  0
LINE
  5
1373
330
1F
100
AcDbEntity
  8
0
 62
     7
 48
0.309685
370
    70
100
AcDbLine
 10
-172.210977516066
 20
103.3853829983971
 30
0.0
 11
-175.0534364446376
 21
119.5057689626827
 31
0.0
  0
ARC
  5
1374
330
1F
100
AcDbEntity
  8
0
 62
     7
370
    70
100
AcDbCircle
 10
-174.4008793374947
 20
119.6205614626828
 30
0.0
 40
0.6625338928571427
100
AcDbArc
 50
164.1613379999981
 51
189.9769569999986
  0
LINE
  5
1375
330
1F
100
AcDbEntity
  8
0
 62
     7
370
    70
100
AcDbLine
 10
-164.801410373209
 20
61.36364256982566
 30
0.0
 11
-172.210977516066
 21
103.3853829983971
 31
0.0
  0
LINE
  5
1376
330
1F
100
AcDbEntity
  8
0
 62
     7
 48
0.072827
370
    70
100
AcDbLine
 10
-164.1329657303519
 20
57.57270449839715
 30
0.0
 11
-164.801410373209
 21
61.36364256982566
 31
0.0
  0
ARC
  5
1377
330
1F
100
AcDbEntity
  8
0
 62
     7
370
    70
100
AcDbCircle
 10
-163.480501123209
 20
57.68802160554015
 30
0.0
 40
0.6625338928571427
100
AcDbArc
 50
190.0230429999995
 51
215.8386620000017
  0
LINE
  5
1378
330
1F
100
AcDbEntity
  8
0
 62
     7
 48
0.379004
370
    70
100
AcDbLine
 10
-168.0704872303519
 20
142.6303870698256
 30
0.0
 11
-173.9175219089232
 21
123.4696119983972
 31
0.0
  0
SPLINE
  5
1379
330
1F
100
AcDbEntity
  8
0
 62
     7
370
    70
100
AcDbSpline
210
0.0
220
0.0
230
1.0
 70
  1064
 71
     3
 72
    27
 73
    23
 74
    21
 42
0.000000001
 43
0.0000000001
 44
0.0000000001
 40
0.0
 40
0.0
 40
0.0
 40
0.0
 40
0.0087307703167091
 40
0.0256349925558845
 40
0.0501537376568615
 40
0.0729957951073027
 40
0.0941566320903942
 40
0.113632016161541
 40
0.1314180169987098
 40
0.1475110082560888
 40
0.1619301838362715
 40
0.1746596583762922
 40
0.1856838274660759
 40
0.1949648671125773
 40
0.202512283082855
 40
0.2082688084332966
 40
0.2155972947556049
 40
0.2248442338429108
 40
0.3236237909320478
 40
0.5600425260345485
 40
0.7973466249654733
 40
0.9357099934676019
 40
0.9357099934676019
 40
0.9357099934676019
 40
0.9357099934676019
 10
-167.3646373233252
 20
143.1287306458006
 30
0.0
 10
-167.3674839840058
 20
143.1281255694007
 30
0.0
 10
-167.3758422528309
 20
143.1263489645374
 30
0.0
 10
-167.3921948388569
 20
143.1228731149481
 30
0.0
 10
-167.413148398661
 20
143.1184192976703
 30
0.0
 10
-167.435489824143
 20
143.1136704796688
 30
0.0
 10
-167.4561868658041
 20
143.1092711862999
 30
0.0
 10
-167.4752353837362
 20
143.1052222948914
 30
0.0
 10
-167.4926315358639
 20
143.1015246309377
 30
0.0
 10
-167.5083791107263
 20
143.0981773601183
 30
0.0
 10
-167.522478023408
 20
143.0951805945598
 30
0.0
 10
-167.534924205403
 20
143.0925349001685
 30
0.0
 10
-167.545695241151
 20
143.0902459669767
 30
0.0
 10
-167.5547763221577
 20
143.0883144862901
 30
0.0
 10
-167.5621406633485
 20
143.0867518238009
 30
0.0
 10
-167.5688667146594
 20
143.0853163100607
 30
0.0
 10
-167.5761516004454
 20
143.0837867253099
 30
0.0
 10
-167.6137142231462
 20
143.0755342496438
 30
0.0
 10
-167.7254893586141
 20
143.0516083661769
 30
0.0
 10
-167.9092153834492
 20
142.9759942830268
 30
0.0
 10
-168.0273652674562
 20
142.7960579531225
 30
0.0
 10
-168.0588797777683
 20
142.6749813413201
 30
0.0
 10
-168.0704869947395
 20
142.6303872007354
 30
0.0
 11
-167.3646373233252
 21
143.1287306458006
 31
0.0
 11
-167.3731773053651
 21
143.1269154165916
 31
0.0
 11
-167.389712129761
 21
143.1234008310247
 31
0.0
 11
-167.413695081298
 21
143.1183030965376
 31
0.0
 11
-167.4360379847226
 21
143.113553964498
 31
0.0
 11
-167.4567364062697
 21
143.109154377326
 31
0.0
 11
-167.4757862059894
 21
143.1051052150229
 31
0.0
 11
-167.49318353943
 21
143.1014072946701
 31
0.0
 11
-167.5089248595462
 21
143.0980613704913
 31
0.0
 11
-167.5230289406299
 21
143.0950634510133
 31
0.0
 11
-167.5354802450075
 21
143.0924168416048
 31
0.0
 11
-167.5462635211481
 21
143.0901248425219
 31
0.0
 11
-167.5553417178043
 21
143.0881950647132
 31
0.0
 11
-167.562724288185
 21
143.0866262618567
 31
0.0
 11
-167.5683548088427
 21
143.0854284216195
 31
0.0
 11
-167.5755238954734
 21
143.0839082543072
 31
0.0
 11
-167.584559157489
 21
143.0819410423731
 31
0.0
 11
-167.680719873849
 21
143.0593464074378
 31
0.0
 11
-167.8938417953264
 21
142.9570093911961
 31
0.0
 11
-168.0301035122169
 21
142.7627261446733
 31
0.0
 11
-168.0704869947395
 21
142.6303872007354
 31
0.0
  0
ARC
  5
137A
330
1F
100
AcDbEntity
  8
0
 62
     7
370
    70
100
AcDbCircle
 10
-169.428688516066
 20
57.70652821268296
 30
0.0
 40
5.285715607142851
100
AcDbArc
 50
20.80698999999851
 51
66.74152999999981
  0
ARC
  5
137B
330
1F
100
AcDbEntity
  8
0
 62
     7
370
    70
100
AcDbCircle
 10
-179.9840168017807
 20
117.5687713912542
 30
0.0
 40
5.285715607142851
100
AcDbArc
 50
313.2584700000019
 51
359.1858980000002
  0
ARC
  5
137C
330
1F
100
AcDbEntity
  8
0
 62
     7
370
    70
100
AcDbCircle
 10
-167.080564123209
 20
63.16970771268294
 30
0.0
 40
0.6607142857142853
100
AcDbArc
 50
210.6693149999981
 51
246.7415380000017
  0
ARC
  5
137D
330
1F
100
AcDbEntity
  8
0
 62
     7
370
    70
100
AcDbCircle
 10
-175.9089848017805
 20
113.2381671769685
 30
0.0
 40
0.6607142857142853
100
AcDbArc
 50
133.2584620000001
 51
169.3306839999999
  0
ARC
  5
137E
330
1F
100
AcDbEntity
  8
0
 62
     7
370
    70
100
AcDbCircle
 10
-105.1361670874948
 20
99.90475071268285
 30
0.0
 40
72.67857142857135
100
AcDbArc
 50
169.3306799999991
 51
178.3351929999998
  0
ARC
  5
137F
330
1F
100
AcDbEntity
  8
0
 62
     7
370
    70
100
AcDbCircle
 10
-105.1361670874948
 20
99.90475071268285
 30
0.0
 40
72.67857142857135
100
AcDbArc
 50
201.6648069999996
 51
210.6693200000008
  0
SPLINE
  5
1380
330
1F
100
AcDbEntity
  8
0
 62
     7
370
    70
100
AcDbSpline
210
0.0
220
0.0
230
1.0
 70
  1064
 71
     3
 72
    24
 73
    20
 74
    18
 42
0.000000001
 43
0.0000000001
 44
0.0000000001
 40
0.0
 40
0.0
 40
0.0
 40
0.0
 40
0.0092499830783611
 40
0.0184999661565261
 40
0.0284340542280631
 40
0.0445813466259133
 40
0.0607204987979375
 40
0.0676080860633544
 40
0.0919794566650765
 40
0.1163635662418458
 40
0.1338515650004312
 40
0.1850181332384217
 40
0.2362105127014583
 40
0.2698962743217693
 40
0.3687745867043813
 40
0.4677125711200353
 40
0.5330152804926162
 40
0.5981972523556798
 40
0.6633792242185285
 40
0.6633792242185285
 40
0.6633792242185285
 40
0.6633792242185285
 10
-175.0889679709804
 20
102.3510888240916
 30
0.0
 10
-175.0869916344592
 20
102.3487541132366
 30
0.0
 10
-175.0830389614169
 20
102.3440846915266
 30
0.0
 10
-175.0752261047724
 20
102.3378307984108
 30
0.0
 10
-175.0744742263961
 20
102.3253031367876
 30
0.0
 10
-175.0664402700674
 20
102.3134656512188
 30
0.0
 10
-175.0622179497401
 20
102.3010604607831
 30
0.0
 10
-175.0565591399243
 20
102.286316128443
 30
0.0
 10
-175.0501665739156
 20
102.268890445295
 30
0.0
 10
-175.0440109153215
 20
102.247672874888
 30
0.0
 10
-175.0360662605418
 20
102.2176984260255
 30
0.0
 10
-175.0262552757832
 20
102.1789459754626
 30
0.0
 10
-175.0185999852333
 20
102.1342152383543
 30
0.0
 10
-175.0095736034379
 20
102.0736457161632
 30
0.0
 10
-174.9986787044583
 20
101.9971503241913
 30
0.0
 10
-174.9953723656132
 20
101.9094655169613
 30
0.0
 10
-174.989375802533
 20
101.8331388643088
 30
0.0
 10
-174.9925049447437
 20
101.7679029061867
 30
0.0
 10
-174.9932179700106
 20
101.7244623339629
 30
0.0
 10
-174.9935744826441
 20
101.7027420478511
 30
0.0
 11
-175.0889679709804
 21
102.3510888240916
 31
0.0
 11
-175.0827563156181
 21
102.3442348088735
 31
0.0
 11
-175.0765446602563
 21
102.3373807936552
 31
0.0
 11
-175.0739669719252
 21
102.327786960809
 31
0.0
 11
-175.0671049799696
 21
102.3131702539917
 31
0.0
 11
-175.0610895064941
 21
102.2981940624966
 31
0.0
 11
-175.0586533450483
 21
102.2917517045627
 31
0.0
 11
-175.050435570907
 21
102.2688076008938
 31
0.0
 11
-175.0434770769952
 21
102.2454374455171
 31
0.0
 11
-175.0389578204278
 21
102.2285434696482
 31
0.0
 11
-175.0269119565703
 21
102.1788150585618
 31
0.0
 11
-175.0178356089535
 21
102.1284337164893
 31
0.0
 11
-175.0127935858952
 21
102.0951274327065
 31
0.0
 11
-175.0003864432804
 21
101.9970306260726
 31
0.0
 11
-174.9941408362944
 21
101.8982899700407
 31
0.0
 11
-174.990749515693
 21
101.8330753796795
 31
0.0
 11
-174.9921619991686
 21
101.7679087137652
 31
0.0
 11
-174.9935744826441
 21
101.7027420478511
 31
0.0
  0
ARC
  5
1381
330
1F
100
AcDbEntity
  8
0
 62
     7
370
    70
100
AcDbCircle
 10
-105.136165766066
 20
99.90475071268285
 30
0.0
 40
69.8805428928571
100
AcDbArc
 50
178.5256459999999
 51
201.4743540000003
  0
SPLINE
  5
1382
330
1F
100
AcDbEntity
  8
0
 62
     7
370
    70
100
AcDbSpline
210
0.0
220
0.0
230
1.0
 70
  1064
 71
     3
 72
    24
 73
    20
 74
    18
 42
0.000000001
 43
0.0000000001
 44
0.0000000001
 40
0.0
 40
0.0
 40
0.0
 40
0.0
 40
0.0092510243540227
 40
0.0185020487078927
 40
0.0284367369620622
 40
0.0445850496789168
 40
0.0607252213326728
 40
0.0676127860666367
 40
0.0919860720058191
 40
0.1163721004488314
 40
0.1338620392085821
 40
0.1850278481204787
 40
0.2362194548876112
 40
0.2699025139428244
 40
0.3687778954534374
 40
0.4677129503226868
 40
0.5330154268245275
 40
0.5981971713694662
 40
0.663378915914608
 40
0.663378915914608
 40
0.663378915914608
 40
0.663378915914608
 10
-170.0336010091165
 20
73.68067797405384
 30
0.0
 10
-170.0325424307733
 20
73.68354823592262
 30
0.0
 10
-170.0304252740871
 20
73.68928875966012
 30
0.0
 10
-170.0252232512913
 20
73.69783876956728
 30
0.0
 10
-170.028799473545
 20
73.70986901587073
 30
0.0
 10
-170.0252997517769
 20
73.72374127693563
 30
0.0
 10
-170.0255747937716
 20
73.73684313963508
 30
0.0
 10
-170.0253003107321
 20
73.75263467954413
 30
0.0
 10
-170.0252533231687
 20
73.77119712395921
 30
0.0
 10
-170.0267260798634
 20
73.79324238526217
 30
0.0
 10
-170.0295128164846
 20
73.82412738636135
 30
0.0
 10
-170.0335482868095
 20
73.86389840027745
 30
0.0
 10
-170.0416536249136
 20
73.90854833740056
 30
0.0
 10
-170.053887378681
 20
73.96855014277456
 30
0.0
 10
-170.0698121425087
 20
74.0441557158963
 30
0.0
 10
-170.0966943981086
 20
74.12768142442853
 30
0.0
 10
-170.1171646416684
 20
74.20145480454471
 30
0.0
 10
-170.1424169027045
 20
74.2616861441872
 30
0.0
 10
-170.1579444080627
 20
74.30226292551195
 30
0.0
 10
-170.1657081607419
 20
74.32255131617437
 30
0.0
 11
-170.0336010091165
 21
73.68067797405384
 31
0.0
 11
-170.0301084035949
 21
73.68924437109514
 31
0.0
 11
-170.0266157980737
 21
73.69781076813644
 31
0.0
 11
-170.0274739540544
 21
73.70770832334064
 31
0.0
 11
-170.0260251827842
 21
73.72379151535615
 31
0.0
 11
-170.0254948229915
 21
73.73992297094773
 31
0.0
 11
-170.0254090705329
 21
73.74681000183777
 31
0.0
 11
-170.0255344663541
 21
73.77118296520625
 31
0.0
 11
-170.0269890279695
 21
73.79552557463355
 31
0.0
 11
-170.0285207510582
 21
73.81294831213946
 31
0.0
 11
-170.0342100681116
 21
73.86379682906055
 31
0.0
 11
-170.0429128563086
 21
73.91424325689245
 31
0.0
 11
-170.0495659311816
 21
73.94726272178894
 31
0.0
 11
-170.0714577018743
 21
74.04368414806343
 31
0.0
 11
-170.0993592283641
 21
74.13860332368945
 31
0.0
 11
-170.1184771708098
 21
74.20104463784856
 31
0.0
 11
-170.1420926657758
 21
74.26179797701137
 31
0.0
 11
-170.1657081607419
 21
74.32255131617437
 31
0.0
  0
ARC
  5
1383
330
1F
100
AcDbEntity
  8
0
 62
     7
370
    70
100
AcDbCircle
 10
-172.5578326946376
 20
73.12232581982566
 30
0.0
 40
0.1321692857142855
100
AcDbArc
 50
100.017962
 51
201.6468599999989
  0
ARC
  5
1384
330
1F
100
AcDbEntity
  8
0
 62
     7
370
    70
100
AcDbCircle
 10
-172.524263123209
 20
73.39667553411145
 30
0.0
 40
0.1321692857142855
100
AcDbArc
 50
280.017894999999
 51
21.45517099999919
  0
ARC
  5
1385
330
1F
100
AcDbEntity
  8
0
 62
     7
370
    70
100
AcDbCircle
 10
-105.1361618017806
 20
99.90475071268285
 30
0.0
 40
72.2821481428571
100
AcDbArc
 50
190.0000000000002
 51
201.4729389999994
  0
ARC
  5
1386
330
1F
100
AcDbEntity
  8
0
 62
     7
370
    70
100
AcDbCircle
 10
-106.4235072902809
 20
99.74367983932385
 30
0.0
 40
70.98642011793727
100
AcDbArc
 50
178.126577460122
 51
190.0523993954208
  0
LINE
  5
1387
330
1F
100
AcDbEntity
  8
0
 62
     7
 48
0.133796
370
    70
100
AcDbLine
 10
-137.308479526534
 20
62.22460258953187
 30
0.0
 11
-137.3084785263769
 21
51.29544670403801
 31
0.0
  0
ARC
  5
1388
330
1F
100
AcDbEntity
  8
0
 62
     7
370
    70
100
AcDbCircle
 10
-136.8085095265342
 20
51.29543416462482
 30
0.0
 40
0.499969
100
AcDbArc
 50
179.9985629999991
 51
278.0014369999998
  0
LINE
  5
1389
330
1F
100
AcDbEntity
  8
0
 62
     7
 48
0.088855
370
    70
100
AcDbLine
 10
-154.0969284803518
 20
58.26867978411145
 30
0.0
 11
-153.2813665517805
 21
53.64339699839732
 31
0.0
  0
LINE
  5
138A
330
1F
100
AcDbEntity
  8
0
 62
     7
 48
0.007061
370
    70
100
AcDbLine
 10
-154.1617405874946
 20
58.63624835554007
 30
0.0
 11
-154.0969284803518
 21
58.26867978411145
 31
0.0
  0
LINE
  5
138B
330
1F
100
AcDbEntity
  8
0
 62
     7
 48
0.2824849999999999
370
    70
100
AcDbLine
 10
-137.3084798010737
 20
62.22460254112307
 30
0.0
 11
-154.2672198067061
 21
59.23431881431683
 31
0.0
  0
ARC
  5
138C
330
1F
100
AcDbEntity
  8
0
 62
     7
370
    70
100
AcDbCircle
 10
-149.9955642109941
 20
108.0965936900414
 30
0.0
 40
0.6607142857142853
100
AcDbArc
 50
10.00000000000021
 51
99.99999999999857
  0
LINE
  5
138D
330
1F
100
AcDbEntity
  8
0
 62
     7
370
    70
100
AcDbLine
 10
-149.3448874967084
 20
108.2113254043272
 30
0.0
 11
-143.8377599252799
 21
76.97885104718444
 31
0.0
  0
ARC
  5
138E
330
1F
100
AcDbEntity
  8
0
 62
     7
370
    70
100
AcDbCircle
 10
-144.4884366395656
 20
76.86411933289865
 30
0.0
 40
0.6607142857142853
100
AcDbArc
 50
280.0000000000018
 51
10.00000000000021
  0
LINE
  5
138F
330
1F
100
AcDbEntity
  8
0
 62
     7
 48
0.2
370
    70
100
AcDbLine
 10
-144.3737048078927
 20
76.21344278180123
 30
0.0
 11
-152.9684139446376
 21
74.69796289125426
 31
0.0
  0
ARC
  5
1390
330
1F
100
AcDbEntity
  8
0
 62
     7
370
    70
100
AcDbCircle
 10
-153.0831456589232
 20
75.34863960554007
 30
0.0
 40
0.6607142857142853
100
AcDbArc
 50
190.0000000000002
 51
280.0000000000018
  0
LINE
  5
1391
330
1F
100
AcDbEntity
  8
0
 62
     7
370
    70
100
AcDbLine
 10
-153.733822373209
 20
75.23390789125425
 30
0.0
 11
-159.2409499446375
 21
106.4663822483971
 31
0.0
  0
ARC
  5
1392
330
1F
100
AcDbEntity
  8
0
 62
     7
370
    70
100
AcDbCircle
 10
-158.5902732303517
 20
106.5811139626827
 30
0.0
 40
0.6607142857142853
100
AcDbArc
 50
99.99999999999857
 51
190.0000000000002
  0
LINE
  5
1393
330
1F
100
AcDbEntity
  8
0
 62
     7
 48
0.2
370
    70
100
AcDbLine
 10
-158.7050049446375
 20
107.2317906769684
 30
0.0
 11
-150.1102961388694
 21
108.7472702241758
 31
0.0
  0
SPLINE
  5
1394
330
1F
100
AcDbEntity
  8
0
 62
     7
370
    70
100
AcDbSpline
210
0.0
220
0.0
230
1.0
 70
  1064
 71
     3
 72
    18
 73
    14
 74
    12
 42
0.000000001
 43
0.0000000001
 44
0.0000000001
 40
0.0
 40
0.0
 40
0.0
 40
0.0
 40
0.1635266428700004
 40
0.3262052697436064
 40
0.487336496124663
 40
0.784220361100603
 40
1.058142127845291
 40
1.184832779872672
 40
1.362625090160297
 40
1.508868386199365
 40
1.565629250947673
 40
1.626566088626498
 40
1.691887796910403
 40
1.691887796910403
 40
1.691887796910403
 40
1.691887796910403
 10
-163.4136477566192
 20
116.8025608023236
 30
0.0
 10
-163.4180511023693
 20
116.7482243900868
 30
0.0
 10
-163.4268349590116
 20
116.6398333432244
 30
0.0
 10
-163.4297472805023
 20
116.4772296832434
 30
0.0
 10
-163.4193420095833
 20
116.2706609821971
 30
0.0
 10
-163.4022866928365
 20
116.0264179822442
 30
0.0
 10
-163.330106552555
 20
115.8020969389272
 30
0.0
 10
-163.2558637902344
 20
115.6273207065608
 30
0.0
 10
-163.17366733617
 20
115.4867926927913
 30
0.0
 10
-163.0381576436764
 20
115.4637790241495
 30
0.0
 10
-162.9503639692686
 20
115.470543356061
 30
0.0
 10
-162.893233079742
 20
115.4949248002885
 30
0.0
 10
-162.8587110578458
 20
115.5189893976405
 30
0.0
 10
-162.8408505841133
 20
115.5314395695969
 30
0.0
 11
-163.4136477566192
 21
116.8025608023236
 31
0.0
 11
-163.4251402850405
 21
116.6394385024415
 31
0.0
 11
-163.427898038081
 21
116.4767832521738
 31
0.0
 11
-163.4212471598949
 21
116.3157893456605
 31
0.0
 11
-163.3893703102334
 21
116.0206217733584
 31
0.0
 11
-163.3102117464797
 21
115.7583870386626
 31
0.0
 11
-163.2595761787364
 21
115.6422553866876
 31
0.0
 11
-163.1509893346373
 21
115.5014754062713
 31
0.0
 11
-163.0087621609659
 21
115.467438180976
 31
0.0
 11
-162.9523133036418
 21
115.4733814354532
 31
0.0
 11
-162.8957410362827
 21
115.4960282178327
 31
0.0
 11
-162.8408505841133
 21
115.5314395695969
 31
0.0
  0
LINE
  5
1395
330
1F
100
AcDbEntity
  8
0
 62
     7
 48
0.000963
370
    70
100
AcDbLine
 10
-163.2334587303518
 20
119.3703159269685
 30
0.0
 11
-163.2291680517804
 21
119.4210257483971
 31
0.0
  0
LINE
  5
1396
330
1F
100
AcDbEntity
  8
0
 62
     7
 48
0.11767
370
    70
100
AcDbLine
 10
-136.912435526534
 20
145.4443871646248
 30
0.0
 11
-132.308479526534
 21
146.4229881646248
 31
0.0
  0
ARC
  5
1397
330
1F
100
AcDbEntity
  8
0
 62
     7
370
    70
100
AcDbCircle
 10
-136.8084795265339
 20
144.9553131646245
 30
0.0
 40
0.5
100
AcDbArc
 50
101.9999999999996
 51
180.0
  0
LINE
  5
1398
330
1F
100
AcDbEntity
  8
0
 62
     7
 48
0.111849
370
    70
100
AcDbLine
 10
-132.3084795265342
 20
51.4229881646248
 30
0.0
 11
-136.7389145265341
 21
50.80033116462479
 31
0.0
  0
LINE
  5
1399
330
1F
100
AcDbEntity
  8
0
 62
     7
 48
0.000401
370
    70
100
AcDbLine
 10
-132.308479526534
 20
146.4229881646248
 30
0.0
 11
-132.308479526534
 21
146.4069361646247
 31
0.0
  0
LINE
  5
139A
330
1F
100
AcDbEntity
  8
0
 62
     7
 48
0.4262100000000001
370
    70
100
AcDbLine
 10
-137.308479526534
 20
62.22460258953187
 30
0.0
 11
-137.308479526534
 21
144.9553131646245
 31
0.0
  0
LINE
  5
139B
330
1F
100
AcDbEntity
  8
0
 62
     7
 48
0.4538120000000001
370
    70
100
AcDbLine
 10
-164.2509124909878
 20
115.3668196294996
 30
0.0
 11
-137.3084798010737
 21
120.0228212189194
 31
0.0
  0
LINE
  5
139C
330
1F
100
AcDbEntity
  8
0
 62
     7
 48
0.4137850000000002
370
    70
100
AcDbLine
 10
-163.4136474089232
 20
116.80256085554
 30
0.0
 11
-161.876535266066
 21
138.619974248397
 31
0.0
  0
LINE
  5
139D
330
1F
100
AcDbEntity
  8
0
 62
     7
 48
0.009836
370
    70
100
AcDbLine
 10
-132.308479526534
 20
64.98563958953186
 30
0.0
 11
-132.308479526534
 21
65.37908258953186
 31
0.0
  0
LINE
  5
139E
330
1F
100
AcDbEntity
  8
0
 62
     7
370
    70
100
AcDbLine
 10
-132.308479526534
 20
133.6182785895317
 30
0.0
 11
-132.308479526534
 21
65.37908258953186
 31
0.0
  0
ARC
  5
139F
330
1F
100
AcDbEntity
  8
0
 62
     7
370
    70
100
AcDbCircle
 10
-155.1128055889851
 20
130.3501212369934
 30
0.0
 40
11.41869779000926
100
AcDbArc
 50
11.37146249992455
 51
40.82858903234306
  0
LINE
  5
13A0
330
1F
100
AcDbEntity
  8
0
 62
     7
 48
0.188978
370
    70
100
AcDbLine
 10
-143.9182625359249
 20
132.6015350748523
 30
0.0
 11
-143.9182625359249
 21
122.6126754677093
 31
0.0
  0
ARC
  5
13A1
330
1F
100
AcDbEntity
  8
0
 62
     7
370
    70
100
AcDbCircle
 10
-145.9120392502106
 20
122.6126754677093
 30
0.0
 40
1.993776714285711
100
AcDbArc
 50
280.0000000000018
 51
0.0
  0
LINE
  5
13A2
330
1F
100
AcDbEntity
  8
0
 62
     7
 48
0.294625
370
    70
100
AcDbLine
 10
-145.5658236706195
 20
120.6491886816893
 30
0.0
 11
-158.178308623209
 21
118.4252672126828
 31
0.0
  0
ARC
  5
13A3
330
1F
100
AcDbEntity
  8
0
 62
     7
370
    70
100
AcDbCircle
 10
-158.5245242303517
 20
120.3887541412542
 30
0.0
 40
1.993776714285711
100
AcDbArc
 50
175.9699739999998
 51
280.0000000000018
  0
LINE
  5
13A4
330
1F
100
AcDbEntity
  8
0
 62
     7
 48
0.20791
370
    70
100
AcDbLine
 10
-159.7410353374947
 20
131.4912093555399
 30
0.0
 11
-160.5133706946376
 21
120.5288744626827
 31
0.0
  0
ARC
  5
13A5
330
1F
100
AcDbEntity
  8
0
 62
     7
370
    70
100
AcDbCircle
 10
-157.7521901946374
 20
131.3510877126828
 30
0.0
 40
1.993776714285711
100
AcDbArc
 50
66.13662599999923
 51
175.9699739999998
  0
ARC
  5
13A6
330
1F
100
AcDbEntity
  8
0
 62
     7
370
    70
100
AcDbCircle
 10
-154.7584660160663
 20
138.1184815341115
 30
0.0
 40
5.406223285714282
100
AcDbArc
 50
246.1366119999985
 51
344.8333619999997
  0
ARC
  5
13A7
330
1F
100
AcDbEntity
  8
0
 62
     7
370
    70
100
AcDbCircle
 10
-147.616214623209
 20
136.1824393555399
 30
0.0
 40
1.993776714285711
100
AcDbArc
 50
55.000014000001
 51
164.8333619999997
  0
LINE
  5
13A8
330
1F
100
AcDbEntity
  8
0
 62
     7
 48
0.25537
370
    70
100
AcDbLine
 10
-150.6655884452471
 20
143.9637164787164
 30
0.0
 11
-137.308479526534
 21
135.7341452458844
 31
0.0
  0
ARC
  5
13A9
330
1F
100
AcDbEntity
  8
0
 62
     7
370
    70
100
AcDbCircle
 10
-154.7584660160663
 20
138.1184815341115
 30
0.0
 40
7.135714285714277
100
AcDbArc
 50
54.99999999999904
 51
175.9699739999998
  0
LINE
  5
13AA
330
1F
100
AcDbEntity
  8
0
 62
     7
 48
0.264197
370
    70
100
AcDbLine
 10
-137.3084798010737
 20
57.15894763173274
 30
0.0
 11
-153.386845716415
 21
54.24146751321288
 31
0.0
  0
LINE
  5
13AB
330
1F
100
AcDbEntity
  8
0
 62
     7
 48
0.2
370
    70
100
AcDbLine
 10
-132.308479526534
 20
133.9842555895316
 30
0.0
 11
-132.3084795265341
 21
146.4069501646247
 31
0.0
  0
LINE
  5
13AC
330
1F
100
AcDbEntity
  8
0
 62
     7
370
    70
100
AcDbLine
 10
-132.308479526534
 20
133.9842555895316
 30
0.0
 11
-132.308479526534
 21
64.98425558953186
 31
0.0
  0
LINE
  5
13AD
330
1F
100
AcDbEntity
  8
0
 62
     7
 48
0.2
370
    70
100
AcDbLine
 10
-132.3084795265342
 20
51.4229881646248
 30
0.0
 11
-132.308479526534
 21
64.98425558953186
 31
0.0
  0
POINT
  5
1429
330
1F
100
AcDbEntity
  8
0
 62
     7
370
     5
100
AcDbPoint
 10
67.52878771894934
 20
121.0647085908689
 30
0.0
  0
LINE
  5
142A
330
1F
100
AcDbEntity
  8
0
 62
     7
370
    70
100
AcDbLine
 10
87.56450200466357
 20
121.8287669122978
 30
0.0
 11
87.56450200466357
 21
136.4934338051545
 31
0.0
  0
LINE
  5
142B
330
1F
100
AcDbEntity
  8
0
 62
     7
370
    70
100
AcDbLine
 10
77.6759384031172
 20
51.25128121079015
 30
0.0
 11
99.60568395708335
 21
51.47143636027777
 31
0.0
  0
LINE
  5
142C
330
1F
100
AcDbEntity
  8
0
 62
     7
370
    70
100
AcDbLine
 10
107.5289721224424
 20
138.4276960353486
 30
0.0
 11
107.5289721224421
 21
59.11276803534867
 31
0.0
  0
ARC
  5
142D
330
1F
100
AcDbEntity
  8
0
 62
     7
370
    70
100
AcDbCircle
 10
99.5253754570832
 20
59.47103336027778
 30
0.0
 40
8.0
100
AcDbArc
 50
270.5751790000002
 51
0.0
  0
LINE
  5
142E
330
1F
100
AcDbEntity
  8
0
 62
     7
370
    70
100
AcDbLine
 10
27.5289721224424
 20
138.4276960353486
 30
0.0
 11
27.52897212244206
 21
59.11276753534867
 31
0.0
  0
LINE
  5
142F
330
1F
100
AcDbEntity
  8
0
 62
     7
370
    70
100
AcDbLine
 10
77.6759384031172
 20
51.25128121079015
 30
0.0
 11
35.44506645708326
 21
51.47143636027777
 31
0.0
  0
ARC
  5
1430
330
1F
100
AcDbEntity
  8
0
 62
     7
370
    70
100
AcDbCircle
 10
35.52537545708315
 20
59.47103286027777
 30
0.0
 40
8.0
100
AcDbArc
 50
180.0
 51
269.4248209999998
  0
CIRCLE
  5
1431
330
1F
100
AcDbEntity
  8
0
 62
     7
370
    70
100
AcDbCircle
 10
97.52373303964757
 20
134.1186285353485
 30
0.0
 40
2.0901075
  0
CIRCLE
  5
1432
330
1F
100
AcDbEntity
  8
0
 62
     7
370
    70
100
AcDbCircle
 10
37.52383503964789
 20
134.1186285353485
 30
0.0
 40
2.0718885
  0
CIRCLE
  5
1433
330
1F
100
AcDbEntity
  8
0
 62
     7
370
    70
100
AcDbCircle
 10
37.52397303964754
 20
64.11013603534866
 30
0.0
 40
2.0681655
  0
CIRCLE
  5
1434
330
1F
100
AcDbEntity
  8
0
 62
     7
370
    70
100
AcDbCircle
 10
97.52359453964745
 20
64.11013603534866
 30
0.0
 40
2.0750345
  0
LINE
  5
1435
330
1F
100
AcDbEntity
  8
0
 62
     7
 48
0.334324
370
    70
100
AcDbLine
 10
87.56450200466357
 20
121.8287669122978
 30
0.0
 11
87.56453357609215
 21
113.7094685551548
 31
0.0
  0
LINE
  5
1436
330
1F
100
AcDbEntity
  8
0
 62
     7
 48
0.334319
370
    70
100
AcDbLine
 10
47.49307343323514
 20
121.8287669122978
 30
0.0
 11
47.49304186180661
 21
113.7095918051548
 31
0.0
  0
ARC
  5
1437
330
1F
100
AcDbEntity
  8
0
 62
     7
370
    70
100
AcDbCircle
 10
67.52871486180636
 20
90.09810966229776
 30
0.0
 40
30.96659953571427
100
AcDbArc
 50
49.68316499999787
 51
130.3164809999975
  0
ELLIPSE
  5
1438
330
1F
100
AcDbEntity
  8
0
 62
     7
370
    70
100
AcDbEllipse
 10
67.52869179037785
 20
92.39063616229772
 30
0.0
 11
30.59990133557999
 21
-0.001453031145062
 31
0.0
210
0.0
220
0.0
230
1.0
 40
0.9848110000000001
 41
2.286072745738822
 42
3.240960417328945
  0
ELLIPSE
  5
1439
330
1F
100
AcDbEntity
  8
0
 62
     7
370
    70
100
AcDbEllipse
 10
67.52878771894934
 20
92.3907053765834
 30
0.0
 11
-30.60000092642646
 21
0.0
 31
0.0
210
0.0
220
0.0
230
1.0
 40
0.9848079999999999
 41
3.042428282708312
 42
3.997154389276202
  0
LINE
  5
143A
330
1F
100
AcDbEntity
  8
0
 62
     7
 48
0.384586
370
    70
100
AcDbLine
 10
47.49307343323514
 20
121.8287675194404
 30
0.0
 11
47.49307343323514
 21
140.5086540908691
 31
0.0
  0
LINE
  5
143B
330
1F
100
AcDbEntity
  8
0
 62
     7
 48
0.000102
370
    70
100
AcDbLine
 10
47.60181636180664
 20
123.4774603051547
 30
0.0
 11
47.60179693323521
 21
123.4824218765834
 31
0.0
  0
ELLIPSE
  5
143C
330
1F
100
AcDbEntity
  8
0
 62
     7
370
    70
100
AcDbEllipse
 10
48.70755829037807
 20
140.5036609480117
 30
0.0
 11
0.0963768341711766
 21
-1.242500611713947
 31
0.0
210
0.0
220
0.0
230
0.9999999999999998
 40
0.974369
 41
3.06615800755616
 42
4.632947828720072
  0
LINE
  5
143D
330
1F
100
AcDbEntity
  8
0
 62
     7
 48
0.066346
370
    70
100
AcDbLine
 10
48.70269386180668
 20
141.7497075194404
 30
0.0
 11
51.92521629037806
 21
141.7497075194404
 31
0.0
  0
LINE
  5
143E
330
1F
100
AcDbEntity
  8
0
 62
     7
 48
0.000132
370
    70
100
AcDbLine
 10
51.92521629037806
 20
141.7497075194404
 30
0.0
 11
51.93164714752104
 21
141.7497075194404
 31
0.0
  0
LINE
  5
143F
330
1F
100
AcDbEntity
  8
0
 62
     7
 48
0.012608
370
    70
100
AcDbLine
 10
51.93164714752104
 20
141.7497075194404
 30
0.0
 11
52.54403329037806
 21
141.7497075194404
 31
0.0
  0
LINE
  5
1440
330
1F
100
AcDbEntity
  8
0
 62
     7
370
    70
100
AcDbLine
 10
82.51472486180622
 20
141.7497075194404
 30
0.0
 11
52.54403329037806
 21
141.7497075194404
 31
0.0
  0
LINE
  5
1441
330
1F
100
AcDbEntity
  8
0
 62
     7
 48
0.002372
370
    70
100
AcDbLine
 10
48.06793450466383
 20
123.3675820194403
 30
0.0
 11
47.95296107609235
 21
123.375200448012
 31
0.0
  0
SPLINE
  5
1442
330
1F
100
AcDbEntity
  8
0
 62
     7
370
    70
100
AcDbSpline
210
0.0
220
0.0
230
1.0
 70
  1064
 71
     3
 72
    15
 73
    11
 74
     9
 42
0.000000001
 43
0.0000000001
 44
0.0000000001
 40
0.0
 40
0.0
 40
0.0
 40
0.0
 40
0.076011450536971
 40
0.1495763659197452
 40
0.2219145675047332
 40
0.303496090930956
 40
0.3516094882610699
 40
0.3628518725304566
 40
0.3717464894419206
 40
0.3795422242523237
 40
0.3795422242523237
 40
0.3795422242523237
 40
0.3795422242523237
 10
47.95296074796847
 20
123.3752000577548
 30
0.0
 10
47.92771079474456
 20
123.3772380909336
 30
0.0
 10
47.87802359345849
 20
123.3812485603346
 30
0.0
 10
47.80450127882646
 20
123.3905392499369
 30
0.0
 10
47.73032620797362
 20
123.4046929427254
 30
0.0
 10
47.66318131172941
 20
123.4185450931924
 30
0.0
 10
47.62393535535586
 20
123.4457521263966
 30
0.0
 10
47.60698380899244
 20
123.4608923549083
 30
0.0
 10
47.60197344219965
 20
123.4691817237184
 30
0.0
 10
47.60186647288935
 20
123.4748246933605
 30
0.0
 10
47.60181650962976
 20
123.4774604134225
 30
0.0
 11
47.95296074796847
 21
123.3752000577548
 31
0.0
 11
47.87724476767489
 21
123.3818956489099
 31
0.0
 11
47.80428932233734
 21
123.3913455045106
 31
0.0
 11
47.73312665235606
 21
123.4043335686345
 31
0.0
 11
47.65482337569049
 21
123.4272277126014
 31
0.0
 11
47.61484167199545
 21
123.4539926593095
 31
0.0
 11
47.60683377207736
 21
123.4618834604705
 31
0.0
 11
47.60259620012805
 21
123.4697037669847
 31
0.0
 11
47.60181650962976
 21
123.4774604134225
 31
0.0
  0
SPLINE
  5
1443
330
1F
100
AcDbEntity
  8
0
 62
     7
370
    70
100
AcDbSpline
210
0.0
220
0.0
230
1.0
 70
  1064
 71
     3
 72
    18
 73
    14
 74
    12
 42
0.000000001
 43
0.0000000001
 44
0.0000000001
 40
0.0
 40
0.0
 40
0.0
 40
0.0
 40
0.0291893265018192
 40
0.0580571231450651
 40
0.079501264989549
 40
0.197249166109553
 40
0.3081973933315589
 40
0.3899264703725369
 40
0.4525828037700204
 40
0.4846998217905301
 40
0.4879898696453949
 40
0.4910654476189939
 40
0.4939990015293051
 40
0.4939990015293051
 40
0.4939990015293051
 40
0.4939990015293051
 10
48.06769398313086
 20
123.3699558099205
 30
0.0
 10
48.05797274304026
 20
123.3703695315259
 30
0.0
 10
48.03863734545829
 20
123.3711924174595
 30
0.0
 10
48.01218552897974
 20
123.3727970390381
 30
0.0
 10
47.956290662955
 20
123.3766584411694
 30
0.0
 10
47.87329237811401
 20
123.3823993744837
 30
0.0
 10
47.76995621689144
 20
123.3973962149152
 30
0.0
 10
47.68893517211546
 20
123.4160105976516
 30
0.0
 10
47.62734719978165
 20
123.4312104847268
 30
0.0
 10
47.60998163207799
 20
123.4605017525066
 30
0.0
 10
47.60358172233268
 20
123.471604705428
 30
0.0
 10
47.60246811428285
 20
123.4745219458325
 30
0.0
 10
47.60211721475537
 20
123.4764970309572
 30
0.0
 10
47.60194591169514
 20
123.4774612332418
 30
0.0
 11
48.06769398313086
 21
123.3699558099205
 31
0.0
 11
48.03853494376528
 21
123.3712851725145
 31
0.0
 11
48.00971771709637
 21
123.3729931333302
 31
0.0
 11
47.98832282468855
 21
123.3744456478068
 31
0.0
 11
47.87097079183454
 21
123.3840928548222
 31
0.0
 11
47.76122438228822
 21
123.4003788830488
 31
0.0
 11
47.68142024023807
 21
123.4180124007242
 31
0.0
 11
47.62380954333656
 21
123.4426461929077
 31
0.0
 11
47.60519081780588
 21
123.4688157535869
 31
0.0
 11
47.6036252156226
 21
123.471709419893
 31
0.0
 11
47.60254769369715
 21
123.4745900667599
 31
0.0
 11
47.60194591169514
 21
123.4774612332418
 31
0.0
  0
LINE
  5
1444
330
1F
100
AcDbEntity
  8
0
 62
     7
 48
0.066346
370
    70
100
AcDbLine
 10
83.13235914752089
 20
141.7497075194404
 30
0.0
 11
86.35487671894933
 21
141.7497075194404
 31
0.0
  0
LINE
  5
1445
330
1F
100
AcDbEntity
  8
0
 62
     7
 48
0.000108
370
    70
100
AcDbLine
 10
83.12713043323508
 20
141.7497075194404
 30
0.0
 11
83.13235914752089
 21
141.7497075194404
 31
0.0
  0
LINE
  5
1446
330
1F
100
AcDbEntity
  8
0
 62
     7
 48
0.012608
370
    70
100
AcDbLine
 10
82.51472486180622
 20
141.7497075194404
 30
0.0
 11
83.12713043323508
 21
141.7497075194404
 31
0.0
  0
SPLINE
  5
1447
330
1F
100
AcDbEntity
  8
0
 62
     7
370
    70
100
AcDbSpline
210
0.0
220
0.0
230
1.0
 70
  1064
 71
     3
 72
    21
 73
    17
 74
    15
 42
0.000000001
 43
0.0000000001
 44
0.0000000001
 40
0.0
 40
0.0
 40
0.0
 40
0.0
 40
2.482015573808233
 40
4.924316950464686
 40
7.307626804770318
 40
11.21153007466705
 40
15.028772424643
 40
16.50003891697588
 40
20.99987588215574
 40
25.50071906398073
 40
28.53958103100815
 40
32.44717516774154
 40
36.47485033179143
 40
37.29205502945129
 40
38.11396566387804
 40
38.94033546590492
 40
38.94033546590492
 40
38.94033546590492
 40
38.94033546590492
 10
86.99198918071848
 20
123.3738786346832
 30
0.0
 10
86.16557489574324
 20
123.3347600969075
 30
0.0
 10
84.52596960295059
 20
123.2571489486622
 30
0.0
 10
82.09209324513222
 20
123.1578120092361
 30
0.0
 10
79.18391622310416
 20
123.0595015962195
 30
0.0
 10
75.81710617596553
 20
122.9612980106908
 30
0.0
 10
72.75315634567961
 20
122.9201199104233
 30
0.0
 10
69.49056015464051
 20
122.8873237217393
 30
0.0
 10
65.99987983597751
 20
122.8597456700293
 30
0.0
 10
61.98679490284653
 20
122.9083568100646
 30
0.0
 10
58.17179043031099
 20
122.9843867371883
 30
0.0
 10
54.51520096938202
 20
123.0915862771848
 30
0.0
 10
51.600305861439
 20
123.2154391127985
 30
0.0
 10
49.71299981587297
 20
123.29372438058
 30
0.0
 10
48.89195932432176
 20
123.3297279158952
 30
0.0
 10
48.34311128608528
 20
123.3549411048785
 30
0.0
 10
48.06794485525863
 20
123.3675818045604
 30
0.0
 11
86.99198918071848
 21
123.3738786346832
 31
0.0
 11
84.51262273606813
 21
123.2592342202162
 31
0.0
 11
82.07234258729384
 21
123.1598923362186
 31
0.0
 11
79.69043939208879
 21
123.0780203000751
 31
0.0
 11
75.78800887020896
 21
122.9707973425936
 31
0.0
 11
71.97120832715859
 21
122.9127217623524
 31
0.0
 11
70.50001820757504
 21
122.8977309818113
 31
0.0
 11
66.00023989403607
 21
122.8747561650875
 31
0.0
 11
61.49963692640016
 21
122.9212564348424
 31
0.0
 11
58.46139768104335
 21
122.9827734456561
 31
0.0
 11
54.55552784560656
 21
123.0988456906511
 31
0.0
 11
50.53106778836967
 21
123.2597446490353
 31
0.0
 11
49.71458054297766
 21
123.2939805364856
 31
0.0
 11
48.89345722789597
 21
123.3299470822335
 31
0.0
 11
48.06794485525863
 21
123.3675818045604
 31
0.0
  0
SPLINE
  5
1448
330
1F
100
AcDbEntity
  8
0
 62
     7
370
    70
100
AcDbSpline
210
0.0
220
0.0
230
1.0
 70
  1064
 71
     3
 72
    15
 73
    11
 74
     9
 42
0.000000001
 43
0.0000000001
 44
0.0000000001
 40
0.0
 40
0.0
 40
0.0
 40
0.0
 40
0.0757752850502915
 40
0.149087628108546
 40
0.2211289742359273
 40
0.3022879440835495
 40
0.3501508424281394
 40
0.3613411000264718
 40
0.3702065673665629
 40
0.3779834932112295
 40
0.3779834932112295
 40
0.3779834932112295
 40
0.3779834932112295
 10
87.10685808047372
 20
123.3815713203129
 30
0.0
 10
87.13202795976295
 20
123.3836225170809
 30
0.0
 10
87.18154961580845
 20
123.3876582400837
 30
0.0
 10
87.25480449427115
 20
123.3969789675929
 30
0.0
 10
87.32864551841112
 20
123.4111527909919
 30
0.0
 10
87.3954545550668
 20
123.4250348159045
 30
0.0
 10
87.43443814631339
 20
123.4521921382668
 30
0.0
 10
87.45126975616116
 20
123.4673025190564
 30
0.0
 10
87.45624255538931
 20
123.4755706421964
 30
0.0
 10
87.45635113612811
 20
123.4811965229022
 30
0.0
 10
87.45640187548664
 20
123.4838254751553
 30
0.0
 11
87.10685808047372
 21
123.3815713203129
 31
0.0
 11
87.18233351631985
 21
123.3883057399829
 31
0.0
 11
87.25503008747976
 21
123.3977877327208
 31
0.0
 11
87.32588627746215
 21
123.4108014137152
 31
0.0
 11
87.40374879468435
 21
123.4336969765725
 31
0.0
 11
87.4434623032546
 21
123.4604120336562
 31
0.0
 11
87.45141411952257
 21
123.4682854371869
 31
0.0
 11
87.45562406608794
 21
123.4760875433817
 31
0.0
 11
87.45640187548664
 21
123.4838254751553
 31
0.0
  0
LINE
  5
1449
330
1F
100
AcDbEntity
  8
0
 62
     7
 48
0.00237
370
    70
100
AcDbLine
 10
86.99199907609218
 20
123.3738780908691
 30
0.0
 11
87.10685836180664
 21
123.3815718051547
 31
0.0
  0
SPLINE
  5
144A
330
1F
100
AcDbEntity
  8
0
 62
     7
370
    70
100
AcDbSpline
210
0.0
220
0.0
230
1.0
 70
  1064
 71
     3
 72
    15
 73
    11
 74
     9
 42
0.000000001
 43
0.0000000001
 44
0.0000000001
 40
0.0
 40
0.0
 40
0.0
 40
0.0
 40
0.1048899390674036
 40
0.2085966021419972
 40
0.3161009607480153
 40
0.4181634930341819
 40
0.4703739960640444
 40
0.4786431373501748
 40
0.4855655357616193
 40
0.4917143082488516
 40
0.4917143082488516
 40
0.4917143082488516
 40
0.4917143082488516
 10
86.9922401913365
 20
123.3762596298421
 30
0.0
 10
87.02716441753526
 20
123.3775651461376
 30
0.0
 10
87.09661888554501
 20
123.3801614510425
 30
0.0
 10
87.20189987483388
 20
123.3896599102557
 30
0.0
 10
87.30414075805574
 20
123.4052434096617
 30
0.0
 10
87.39333348613072
 20
123.4197031485315
 30
0.0
 10
87.4357812377316
 20
123.4552542691018
 30
0.0
 10
87.4516242903239
 20
123.4711705650851
 30
0.0
 10
87.45533568804779
 20
123.4774397390172
 30
0.0
 10
87.45597264775268
 20
123.4817831326233
 30
0.0
 10
87.45627227816369
 20
123.4838262961098
 30
0.0
 11
86.9922401913365
 21
123.3762596298421
 31
0.0
 11
87.09701817522383
 21
123.3811045663814
 31
0.0
 11
87.20029392452904
 21
123.3905486953255
 31
0.0
 11
87.30670851647516
 21
123.4058170200611
 31
0.0
 11
87.40494632387131
 21
123.4334954176784
 31
0.0
 11
87.44608028230889
 21
123.4656502631902
 31
0.0
 11
87.45166565721602
 21
123.4717479910258
 31
0.0
 11
87.4550112992042
 21
123.4778082120988
 31
0.0
 11
87.45627227816369
 21
123.4838262961098
 31
0.0
  0
LINE
  5
144B
330
1F
100
AcDbEntity
  8
0
 62
     7
 48
0.000103
370
    70
100
AcDbLine
 10
87.45640143323525
 20
123.483825590869
 30
0.0
 11
87.45642207609218
 21
123.4888223765834
 31
0.0
  0
ELLIPSE
  5
144C
330
1F
100
AcDbEntity
  8
0
 62
     7
370
    70
100
AcDbEllipse
 10
86.3500135046638
 20
140.5036609480117
 30
0.0
 11
-0.0964208394288841
 21
-1.242500032697404
 31
0.0
210
0.0
220
0.0
230
1.0
 40
0.9743699999999998
 41
1.65027359513605
 42
3.217068570146972
  0
ELLIPSE
  5
144D
330
1F
100
AcDbEntity
  8
0
 62
     7
370
    70
100
AcDbEllipse
 10
67.52878771894934
 20
90.42838566229765
 30
0.0
 11
23.86700425829204
 21
0.0
 31
0.0
210
0.0
220
0.0
230
1.0
 40
0.9848079999999999
 41
2.070796326794904
 42
8.353981633974488
  0
LINE
  5
144E
330
1F
100
AcDbEntity
  8
0
 62
     7
 48
0.4633720000000002
370
    70
100
AcDbLine
 10
49.31450200466389
 20
80.38074330515485
 30
0.0
 11
49.31450200466389
 21
102.8873869480119
 31
0.0
  0
LINE
  5
144F
330
1F
100
AcDbEntity
  8
0
 62
     7
 48
0.05718
370
    70
100
AcDbLine
 10
85.74307343323495
 20
102.8873869480119
 30
0.0
 11
85.74307343323495
 21
100.1100799480119
 31
0.0
  0
LINE
  5
1450
330
1F
100
AcDbEntity
  8
0
 62
     7
 48
0.459844
370
    70
100
AcDbLine
 10
85.74307343323495
 20
100.1100799480119
 30
0.0
 11
85.74307343323495
 21
77.77478901944047
 31
0.0
  0
SPLINE
  5
1451
330
1F
100
AcDbEntity
  8
0
 62
     7
370
    70
100
AcDbSpline
210
0.0
220
0.0
230
1.0
 70
  1064
 71
     3
 72
    15
 73
    11
 74
     9
 42
0.000000001
 43
0.0000000001
 44
0.0000000001
 40
0.0
 40
0.0
 40
0.0
 40
0.0
 40
0.1539177268613088
 40
0.2989056677097844
 40
0.4337119213941745
 40
0.6195838204717916
 40
0.8288208690393794
 40
0.8727446232055758
 40
0.9187123142757416
 40
0.9674020264241807
 40
0.9674020264241807
 40
0.9674020264241807
 40
0.9674020264241807
 10
85.74307343323495
 20
77.77478929495448
 30
0.0
 10
85.74776289979004
 20
77.72279637724603
 30
0.0
 10
85.75686976590892
 20
77.62182699509139
 30
0.0
 10
85.693099387687
 20
77.48659874093317
 30
0.0
 10
85.60335141655167
 20
77.36159535604233
 30
0.0
 10
85.47364215252697
 20
77.23221232667781
 30
0.0
 10
85.32558103783822
 20
77.20197755970565
 30
0.0
 10
85.22946603164008
 20
77.17629644184566
 30
0.0
 10
85.18370832368871
 20
77.16885943723261
 30
0.0
 10
85.15215890947455
 20
77.16769201329261
 30
0.0
 10
85.13593057609218
 20
77.16709151577567
 30
0.0
 11
85.74307343323495
 21
77.77478929495448
 31
0.0
 11
85.74307343323495
 21
77.62087156809318
 31
0.0
 11
85.68816907427509
 21
77.48668135101798
 31
0.0
 11
85.61024403678834
 21
77.37667946664726
 31
0.0
 11
85.47127571251657
 21
77.25324459428205
 31
0.0
 11
85.27258447953609
 21
77.18765544556084
 31
0.0
 11
85.22993240404813
 21
77.17716275112036
 31
0.0
 11
85.1845375865062
 21
77.16992817009185
 31
0.0
 11
85.13593057609218
 21
77.16709151577567
 31
0.0
  0
ELLIPSE
  5
1452
330
1F
100
AcDbEntity
  8
0
 62
     7
370
    70
100
AcDbEllipse
 10
67.52878771894934
 20
88.08408566229763
 30
0.0
 11
-65.28747885567796
 21
0.0
 31
0.0
210
0.0
220
0.0
230
1.0
 40
0.173648
 41
1.297729019780975
 42
1.84386363380883
  0
SPLINE
  5
1453
330
1F
100
AcDbEntity
  8
0
 62
     7
370
    70
100
AcDbSpline
210
0.0
220
0.0
230
1.0
 70
  1064
 71
     3
 72
    15
 73
    11
 74
     9
 42
0.000000001
 43
0.0000000001
 44
0.0000000001
 40
0.0
 40
0.0
 40
0.0
 40
0.0
 40
0.097609463913218
 40
0.1853136653492375
 40
0.2658004643628831
 40
0.4562368086601648
 40
0.6338016433505675
 40
0.7370017548890708
 40
0.8446904538985043
 40
0.9588817876024043
 40
0.9588817876024043
 40
0.9588817876024043
 40
0.9588817876024043
 10
49.92164486180666
 20
77.16709151577266
 30
0.0
 10
49.88895494139526
 20
77.16737512657319
 30
0.0
 10
49.82689242482621
 20
77.16791356777422
 30
0.0
 10
49.74111126758439
 20
77.19368671486003
 30
0.0
 10
49.63230146701987
 20
77.2422101455438
 30
0.0
 10
49.49707425255303
 20
77.31333613288096
 30
0.0
 10
49.40198419501908
 20
77.44307073395919
 30
0.0
 10
49.34149463501184
 20
77.55706577788402
 30
0.0
 10
49.30714952230356
 20
77.66204086685071
 30
0.0
 10
49.31200375622424
 20
77.73647929759633
 30
0.0
 10
49.31450200466389
 20
77.77478929593968
 30
0.0
 11
49.92164486180666
 21
77.16709151577266
 31
0.0
 11
49.82420119210697
 21
77.17277822667465
 31
0.0
 11
49.73966565165174
 21
77.19613993357876
 31
0.0
 11
49.66570600437838
 21
77.22789045153773
 31
0.0
 11
49.50301999080686
 21
77.32688167446944
 31
0.0
 11
49.39215233346835
 21
77.46558146925986
 31
0.0
 11
49.34472209866534
 21
77.55723645192905
 31
0.0
 11
49.31450200466389
 21
77.66059796223578
 31
0.0
 11
49.31450200466389
 21
77.77478929593968
 31
0.0
  0
LINE
  5
1454
330
1F
100
AcDbEntity
  8
0
 62
     7
 48
0.053652
370
    70
100
AcDbLine
 10
49.31450200466389
 20
77.77478901944047
 30
0.0
 11
49.31450200466389
 21
80.38074330515485
 31
0.0
  0
LINE
  5
1455
330
1F
100
AcDbEntity
  8
0
 62
     7
 48
0.000276
370
    70
100
AcDbLine
 10
85.13593057609218
 20
77.16709123372627
 30
0.0
 11
85.13593057609218
 21
77.18047873372626
 31
0.0
  0
ELLIPSE
  5
1456
330
1F
100
AcDbEntity
  8
0
 62
     7
370
    70
100
AcDbEllipse
 10
85.13598521894932
 20
77.76121937658349
 30
0.0
 11
0.5689626506396701
 21
0.2247717455029487
 31
0.0
210
0.0
220
0.0
230
1.0
 40
0.9420659999999998
 41
4.356013998880479
 42
5.926905707884865
  0
LINE
  5
1457
330
1F
100
AcDbEntity
  8
0
 62
     7
 48
0.000276
370
    70
100
AcDbLine
 10
49.92164486180666
 20
77.16709123372627
 30
0.0
 11
49.92164486180666
 21
77.18047873372626
 31
0.0
  0
ELLIPSE
  5
1458
330
1F
100
AcDbEntity
  8
0
 62
     7
370
    70
100
AcDbEllipse
 10
49.92159021894932
 20
77.76121937658349
 30
0.0
 11
0.5689626144511389
 21
-0.2247717997857423
 31
0.0
210
0.0
220
0.0
230
1.0
 40
0.9420660000000001
 41
3.497872362755571
 42
5.068764088829129
  0
LINE
  5
1459
330
1F
100
AcDbEntity
  8
0
 62
     7
 48
0.012658
370
    70
100
AcDbLine
 10
87.56450200466357
 20
139.8938260194405
 30
0.0
 11
87.56450200466357
 21
140.5086540908691
 31
0.0
  0
LINE
  5
145A
330
1F
100
AcDbEntity
  8
0
 62
     7
 48
0.028902
370
    70
100
AcDbLine
 10
37.22068379037818
 20
88.00586016229765
 30
0.0
 11
37.07959593323515
 21
89.40254616229777
 31
0.0
  0
ARC
  5
145B
330
1F
100
AcDbEntity
  8
0
 62
     7
370
    70
100
AcDbCircle
 10
66.75215243323508
 20
91.00465287658346
 30
0.0
 40
29.68368178571429
100
AcDbArc
 50
185.8049590000002
 51
209.0442130000001
  0
ARC
  5
145C
330
1F
100
AcDbEntity
  8
0
 62
     7
370
    70
100
AcDbCircle
 10
67.10618350466346
 20
91.20402644801194
 30
0.0
 40
30.09080142857142
100
AcDbArc
 50
209.0488289999992
 51
229.3803290000002
  0
ARC
  5
145D
330
1F
100
AcDbEntity
  8
0
 62
     7
370
    70
100
AcDbCircle
 10
65.85272129037797
 20
77.29055616229766
 30
0.0
 40
20.34400928571427
100
AcDbArc
 50
206.6205739999994
 51
209.1196599999996
  0
SPLINE
  5
145E
330
1F
100
AcDbEntity
  8
0
 62
     7
370
    70
100
AcDbSpline
210
0.0
220
0.0
230
1.0
 70
  1064
 71
     3
 72
    49
 73
    45
 74
    43
 42
0.000000001
 43
0.0000000001
 44
0.0000000001
 40
0.0
 40
0.0
 40
0.0
 40
0.0
 40
1.474910807063052
 40
2.20767046288471
 40
3.312185470910923
 40
4.427112431633499
 40
5.552322627860535
 40
6.687588789773515
 40
7.832655713612692
 40
8.987208220981754
 40
10.15088497525854
 40
11.32326012783697
 40
12.50383036969559
 40
13.69202012029219
 40
14.88720018202097
 40
16.08871280710141
 40
17.2958802529966
 40
18.50800312429086
 40
19.72435659395044
 40
20.94418732787084
 40
22.16670860625292
 40
23.39109540115813
 40
24.61647751834802
 40
25.84193840752987
 40
27.06654267933968
 40
28.28937193196356
 40
29.5095539012964
 40
30.72626205695259
 40
31.93870911882147
 40
33.14614187789228
 40
34.34783798098679
 40
35.54310220443522
 40
36.73126740559353
 40
37.9117080475036
 40
39.08386008296928
 40
40.2472334332029
 40
41.40140962261567
 40
42.54603169561624
 40
43.68061989477157
 40
44.80492287133493
 40
45.91872373927006
 40
47.02205021741067
 40
47.75399893903401
 40
48.11813838401971
 40
48.11813838401971
 40
48.11813838401971
 40
48.11813838401971
 10
87.51893299393385
 20
68.36332726309274
 30
0.0
 10
87.28246830485483
 20
67.93228685387159
 30
0.0
 10
86.92852411575874
 20
67.28709856506775
 30
0.0
 10
86.37110848316018
 20
66.33375244355592
 30
0.0
 10
85.82116732493128
 20
65.51681809717209
 30
0.0
 10
85.15553618449287
 20
64.6219803106069
 30
0.0
 10
84.4351493370398
 20
63.75693277605309
 30
0.0
 10
83.66333420260025
 20
62.92380304486033
 30
0.0
 10
82.84112617130078
 20
62.12620078097323
 30
0.0
 10
81.97051162574961
 20
61.36725491244456
 30
0.0
 10
81.05355124493115
 20
60.65012247403322
 30
0.0
 10
80.09262181160101
 20
59.97782583005982
 30
0.0
 10
79.09035061516611
 20
59.35327668201636
 30
0.0
 10
78.04962762443152
 20
58.77923514099503
 30
0.0
 10
76.97358282182023
 20
58.25827013359756
 30
0.0
 10
75.86555253998529
 20
57.79274145601079
 30
0.0
 10
74.72905587045852
 20
57.3847766379983
 30
0.0
 10
73.56777591962249
 20
57.03625908853579
 30
0.0
 10
72.38554528368965
 20
56.74881596908743
 30
0.0
 10
71.18633175870397
 20
56.52380679689041
 30
0.0
 10
69.97422384116396
 20
56.36231158366723
 30
0.0
 10
68.75341647841003
 20
56.26511887831405
 30
0.0
 10
67.52819450428686
 20
56.23271400951537
 30
0.0
 10
66.30290378194974
 20
56.26526644566971
 30
0.0
 10
65.08190766516273
 20
56.36262923127228
 30
0.0
 10
63.86953118001774
 20
56.52432340959198
 30
0.0
 10
62.67001646332967
 20
56.74956158930056
 30
0.0
 10
61.48749354837811
 20
57.03725712025243
 30
0.0
 10
60.32596405079428
 20
57.38603883181284
 30
0.0
 10
59.18928683553287
 20
57.79426376146291
 30
0.0
 10
58.08116382321994
 20
58.26003046608123
 30
0.0
 10
57.00512399222521
 20
58.78119156059282
 30
0.0
 10
55.96450430128186
 20
59.35537165741337
 30
0.0
 10
54.96242190290456
 20
59.97998516276237
 30
0.0
 10
54.00174813172756
 20
60.65226506065414
 30
0.0
 10
53.08509658404851
 20
61.36930276533835
 30
0.0
 10
52.21482523300309
 20
62.12807210507844
 30
0.0
 10
51.39303216378794
 20
62.92538017345684
 30
0.0
 10
50.62168577386472
 20
63.75803048154968
 30
0.0
 10
49.90198138406075
 20
64.62244125985155
 30
0.0
 10
49.23659258394504
 20
65.51618707710066
 30
0.0
 10
48.68833488565048
 20
66.33285735662474
 30
0.0
 10
48.31552386552247
 20
66.96443220373559
 30
0.0
 10
48.1387976796106
 20
67.28420997876148
 30
0.0
 10
48.08008618430135
 20
67.39044568594636
 30
0.0
 11
87.51893299393385
 21
68.36332726309274
 31
0.0
 11
86.80168787204733
 21
67.07455989699389
 31
0.0
 11
86.42841477334405
 21
66.44400148813367
 31
0.0
 11
85.81610860431487
 21
65.52474387553317
 31
0.0
 11
85.14958713109626
 21
64.63098146108257
 31
0.0
 11
84.42989515410385
 21
63.76602976072813
 31
0.0
 11
83.6583577195404
 21
62.93322771615098
 31
0.0
 11
82.83654704584359
 21
62.13585360278354
 31
0.0
 11
81.96630163740135
 21
61.37712807839585
 31
0.0
 11
81.04971511981206
 21
60.66018125734306
 31
0.0
 11
80.08914635412287
 21
59.98804202714915
 31
0.0
 11
79.08722466404116
 21
59.36362307892135
 31
0.0
 11
78.04684295508865
 21
58.78968860260906
 31
0.0
 11
76.97113588999783
 21
58.26881463506246
 31
0.0
 11
75.86344142131411
 21
57.80336264798415
 31
0.0
 11
74.72727699482534
 21
57.39546114221275
 31
0.0
 11
73.56632371015315
 21
57.04699403340118
 31
0.0
 11
72.38441241678255
 21
56.75958934005757
 31
0.0
 11
71.18550868000356
 21
56.53460745333297
 31
0.0
 11
69.97369880991204
 21
56.37312954510497
 31
0.0
 11
68.75317502048334
 21
56.27594568339485
 31
0.0
 11
67.52822139028051
 21
56.24354295231166
 31
0.0
 11
66.30319288112985
 21
56.27609356954895
 31
0.0
 11
65.08246447527177
 21
56.37344746862865
 31
0.0
 11
63.87037063806285
 21
56.53512588670857
 31
0.0
 11
62.67115289610014
 21
56.76033877631929
 31
0.0
 11
61.48893856780965
 21
57.04799832861147
 31
0.0
 11
60.32772689035764
 21
57.39673220706837
 31
0.0
 11
59.19137491943457
 21
57.80489647039456
 31
0.0
 11
58.08358240587317
 21
58.27058871972866
 31
0.0
 11
57.00787765646737
 21
58.79166055351126
 31
0.0
 11
55.96759983111621
 21
59.36573249266718
 31
0.0
 11
54.9658698260916
 21
59.99021396245348
 31
0.0
 11
54.00556084625114
 21
60.66233527403653
 31
0.0
 11
53.08928431092657
 21
61.37918592992477
 31
0.0
 11
52.21938459007646
 21
62.13773530331605
 31
0.0
 11
51.397942995955
 21
62.93485097713466
 31
0.0
 11
50.62690040008686
 21
63.76718726555386
 31
0.0
 11
49.90779350797701
 21
64.63144559546996
 31
0.0
 11
49.24190638587264
 21
65.52427632636389
 31
0.0
 11
48.63017313619277
 21
66.44248749412557
 31
0.0
 11
48.25722125410734
 21
67.07229367441835
 31
0.0
 11
48.08008618430135
 21
67.39044568594636
 31
0.0
  0
ELLIPSE
  5
145F
330
1F
100
AcDbEntity
  8
0
 62
     7
370
    70
100
AcDbEllipse
 10
67.52872943323492
 20
90.98217401944054
 30
0.0
 11
30.26904045839617
 21
3.780703572239933
 31
0.0
210
0.0
220
0.0
230
1.0
 40
0.9855340874459368
 41
5.305708689701755
 42
6.104721786036713
  0
SPLINE
  5
1460
330
1F
100
AcDbEntity
  8
0
 62
     7
370
    70
100
AcDbSpline
210
0.0
220
0.0
230
1.0
 70
  1064
 71
     3
 72
    41
 73
    37
 74
    35
 42
0.000000001
 43
0.0000000001
 44
0.0000000001
 40
0.0
 40
0.0
 40
0.0
 40
0.0
 40
0.0107298618946032
 40
0.0319154248316521
 40
0.063313640562947
 40
0.0939737164703728
 40
0.123983764637573
 40
0.1534210740511546
 40
0.1823559009351041
 40
0.2108517491032729
 40
0.2389684881306003
 40
0.2667604135220063
 40
0.294280347879953
 40
0.3215762484850036
 40
0.3486975148694393
 40
0.3756905623794331
 40
0.4026049544639675
 40
0.4294873802451038
 40
0.4563883546300175
 40
0.4833555557744048
 40
0.5104415892935394
 40
0.5376966865885452
 40
0.565178644458532
 40
0.5929449425587956
 40
0.6210640901407207
 40
0.6496046845059391
 40
0.6786476231958551
 40
0.7082791472151745
 40
0.7386008181272366
 40
0.7697262144447774
 40
0.8017864848438891
 40
0.8349345687006978
 40
0.8693499171612508
 40
0.9052491469355238
 40
0.9296964802722444
 40
0.9422043798966514
 40
0.9422043798966514
 40
0.9422043798966514
 40
0.9422043798966514
 10
49.31450200466389
 20
102.8873870015683
 30
0.0
 10
49.31449126006764
 20
102.890963604008
 30
0.0
 10
49.31445930081625
 20
102.9016020248411
 30
0.0
 10
49.314961645601
 20
102.9227074222233
 30
0.0
 10
49.31715216584091
 20
102.9503842262664
 30
0.0
 10
49.32095538612813
 20
102.9808471045517
 30
0.0
 10
49.32616493733826
 20
103.0104406978639
 30
0.0
 10
49.33266305509726
 20
103.0391871481792
 30
0.0
 10
49.3403981535145
 20
103.0671023956438
 30
0.0
 10
49.34931352022577
 20
103.0941998979843
 30
0.0
 10
49.35936401166433
 20
103.1204895300279
 30
0.0
 10
49.3705107224751
 20
103.1459785631289
 30
0.0
 10
49.38272061627807
 20
103.1706707081626
 30
0.0
 10
49.39596643036255
 20
103.1945675803093
 30
0.0
 10
49.41022568721074
 20
103.2176677177974
 30
0.0
 10
49.42548148293701
 20
103.2399682638097
 30
0.0
 10
49.44172129821319
 20
103.2614630923891
 30
0.0
 10
49.45893787011081
 20
103.2821439982701
 30
0.0
 10
49.47712756511743
 20
103.3019984412657
 30
0.0
 10
49.49629160100823
 20
103.3210108467494
 30
0.0
 10
49.5164342111418
 20
103.3391603632086
 30
0.0
 10
49.53756465408562
 20
103.3564225022735
 30
0.0
 10
49.55969556166404
 20
103.372766984039
 30
0.0
 10
49.58284609737607
 20
103.3881592762852
 30
0.0
 10
49.60703962858326
 20
103.4025576194056
 30
0.0
 10
49.6323069100698
 20
103.4159133554195
 30
0.0
 10
49.65868377579261
 20
103.4281680241978
 30
0.0
 10
49.68621493657119
 20
103.4392532371049
 30
0.0
 10
49.7149530121994
 20
103.4490869829927
 30
0.0
 10
49.74496113486242
 20
103.4575726474031
 30
0.0
 10
49.77631334103947
 20
103.4645878702505
 30
0.0
 10
49.80909654603232
 20
103.4700053726935
 30
0.0
 10
49.84341342536652
 20
103.4735885538873
 30
0.0
 10
49.8749887102875
 20
103.4751491084447
 30
0.0
 10
49.8992813637332
 20
103.4746887727694
 30
0.0
 10
49.91158287880808
 20
103.4740440060504
 30
0.0
 10
49.91574646007807
 20
103.4738257777576
 30
0.0
 11
49.31450200466389
 21
102.8873870015683
 31
0.0
 11
49.31450200466389
 21
102.8981168634629
 31
0.0
 11
49.31503750063384
 21
102.9192956575982
 31
0.0
 11
49.31740978453864
 21
102.9506041264235
 31
0.0
 11
49.32123799003935
 21
102.9810242693767
 31
0.0
 11
49.32643602063068
 21
103.0105807148492
 31
0.0
 11
49.33293041918529
 21
103.0392926979386
 31
0.0
 11
49.34065840787868
 21
103.0671764279179
 31
0.0
 11
49.34956616814304
 21
103.0942442163369
 31
0.0
 11
49.35960817922095
 21
103.1205065282504
 31
0.0
 11
49.37074532569663
 21
103.1459693459527
 31
0.0
 11
49.38294512102892
 21
103.1706373775101
 31
0.0
 11
49.39617942949745
 21
103.1945103595023
 31
0.0
 11
49.41042652661535
 21
103.2175881261622
 31
0.0
 11
49.42566844244137
 21
103.239866111166
 31
0.0
 11
49.44189379318546
 21
103.2613398740992
 31
0.0
 11
49.45909396191214
 21
103.2819994726348
 31
0.0
 11
49.47726672314431
 21
103.3018341183855
 31
0.0
 11
49.49641152200435
 21
103.3208263961365
 31
0.0
 11
49.51653428093447
 21
103.3389572478771
 31
0.0
 11
49.5376417388919
 21
103.3562000883373
 31
0.0
 11
49.55974847858435
 21
103.3725264494915
 31
0.0
 11
49.58287050586687
 21
103.3878997758895
 31
0.0
 11
49.60703412599371
 21
103.4022805242393
 31
0.0
 11
49.63226645467584
 21
103.41561825703
 31
0.0
 11
49.65860521249364
 21
103.4278559906585
 31
0.0
 11
49.68609191906956
 21
103.4389243318764
 31
0.0
 11
49.71478001216432
 21
103.4487425313797
 31
0.0
 11
49.74473067648036
 21
103.4572129506699
 31
0.0
 11
49.77601631073183
 21
103.4642179508517
 31
0.0
 11
49.80872202859977
 21
103.4696153096614
 31
0.0
 11
49.84294689684761
 21
103.4732311917225
 31
0.0
 11
49.87880956121087
 21
103.4748510692345
 31
0.0
 11
49.90325332561059
 21
103.4744333501335
 31
0.0
 11
49.91574646007807
 21
103.4738257777576
 31
0.0
  0
ELLIPSE
  5
1461
330
1F
100
AcDbEntity
  8
0
 62
     7
370
    70
100
AcDbEllipse
 10
67.52878771894934
 20
114.3980796622975
 30
0.0
 11
65.31933866228373
 21
0.0
 31
0.0
210
0.0
220
0.0
230
1.0
 40
0.173677
 41
4.439364490818736
 42
4.985413470555136
  0
SPLINE
  5
1462
330
1F
100
AcDbEntity
  8
0
 62
     7
370
    70
100
AcDbSpline
210
0.0
220
0.0
230
1.0
 70
  1064
 71
     3
 72
    41
 73
    37
 74
    35
 42
0.000000001
 43
0.0000000001
 44
0.0000000001
 40
0.0
 40
0.0
 40
0.0
 40
0.0
 40
0.0125077874501092
 40
0.036954538019387
 40
0.0728528111603234
 40
0.1072673693695913
 40
0.1404150201189374
 40
0.1724752729814561
 40
0.2036009869931029
 40
0.2339234764009845
 40
0.2635557532747403
 40
0.2925990169291018
 40
0.3211397114167143
 40
0.3492592315698092
 40
0.3770259143347626
 40
0.4045073460909414
 40
0.4317604715295496
 40
0.4588434885603124
 40
0.4858078390372651
 40
0.5127072199220977
 40
0.5395898640251358
 40
0.5665063048020126
 40
0.5935026759480515
 40
0.6206274016706839
 40
0.6479256341540888
 40
0.6754463434338036
 40
0.7032380400316231
 40
0.7313544808565747
 40
0.7598502890527365
 40
0.7887849776889667
 40
0.8182217886460122
 40
0.8482311922935409
 40
0.8788909686407526
 40
0.9102890702065339
 40
0.9314746142146137
 40
0.9422043412935472
 40
0.9422043412935472
 40
0.9422043412935472
 40
0.9422043412935472
 10
85.14182897716155
 20
103.4738257778107
 30
0.0
 10
85.1459925210338
 20
103.4740440052889
 30
0.0
 10
85.15829380460898
 20
103.4746887632586
 30
0.0
 10
85.18258591000067
 20
103.4751490356073
 30
0.0
 10
85.21416040916724
 20
103.4735884577857
 30
0.0
 10
85.24847660035559
 20
103.4700057127305
 30
0.0
 10
85.28125942614474
 20
103.4645884129249
 30
0.0
 10
85.31261158442008
 20
103.4575731956136
 30
0.0
 10
85.34262015486472
 20
103.4490877581635
 30
0.0
 10
85.37135890343391
 20
103.4392540135062
 30
0.0
 10
85.39889061774083
 20
103.428168477659
 30
0.0
 10
85.42526783965287
 20
103.4159136468103
 30
0.0
 10
85.45053536523473
 20
103.4025578067127
 30
0.0
 10
85.47472921146924
 20
103.3881594327842
 30
0.0
 10
85.49787979551567
 20
103.3727670702299
 30
0.0
 10
85.52001011286085
 20
103.3564229752117
 30
0.0
 10
85.54113908961141
 20
103.3391619491107
 30
0.0
 10
85.56127981459722
 20
103.3210142511517
 30
0.0
 10
85.5804423087455
 20
103.3020038291872
 30
0.0
 10
85.59863142026211
 20
103.2821507656365
 30
0.0
 10
85.61584857340443
 20
103.2614700513726
 30
0.0
 10
85.63208991179036
 20
103.2399740343851
 30
0.0
 10
85.64734763714449
 20
103.2176712359722
 30
0.0
 10
85.6616085699841
 20
103.1945685570794
 30
0.0
 10
85.67485538262188
 20
103.1706697332668
 30
0.0
 10
85.6870655923201
 20
103.1459766733316
 30
0.0
 10
85.69821221726321
 20
103.1204875136822
 30
0.0
 10
85.70826260742666
 20
103.0941980459548
 30
0.0
 10
85.71717784637892
 20
103.0671006677823
 30
0.0
 10
85.72491277239413
 20
103.0391856061066
 30
0.0
 10
85.73141064695663
 20
103.0104395387922
 30
0.0
 10
85.73662007663932
 20
102.980846417483
 30
0.0
 10
85.74042343243913
 20
102.9503839087637
 30
0.0
 10
85.74261376719073
 20
102.9227072351525
 30
0.0
 10
85.74311618510591
 20
102.9016019298786
 30
0.0
 10
85.74308418985182
 20
102.8909635601148
 30
0.0
 10
85.74307343323495
 20
102.8873870025534
 30
0.0
 11
85.14182897716155
 21
103.4738257778107
 31
0.0
 11
85.15432199961127
 21
103.4744333442416
 31
0.0
 11
85.17876518202173
 21
103.4748510128246
 31
0.0
 11
85.2146268909156
 21
103.4732311826751
 31
0.0
 11
85.2488510002416
 21
103.4696156387906
 31
0.0
 11
85.28155631545088
 21
103.4642184999873
 31
0.0
 11
85.31284195031437
 21
103.4572135828003
 31
0.0
 11
85.3427929931229
 21
103.4487433344322
 31
0.0
 11
85.37148192094802
 21
103.4389250461834
 31
0.0
 11
85.39896931538626
 21
103.4278563976788
 31
0.0
 11
85.4253083629108
 21
103.415618516359
 31
0.0
 11
85.45054079801088
 21
103.4022807706441
 31
0.0
 11
85.47470478386784
 21
103.3878999083214
 31
0.0
 11
85.49782712616837
 21
103.3725263609654
 31
0.0
 11
85.51993341159048
 21
103.3562002703064
 31
0.0
 11
85.5410393136943
 21
103.3389586421189
 31
0.0
 11
85.56115989779684
 21
103.3208298830091
 31
0.0
 11
85.58030289742289
 21
103.3018398392503
 31
0.0
 11
85.59847494686273
 21
103.2820067025558
 31
0.0
 11
85.61567568559205
 21
103.2613472945019
 31
0.0
 11
85.63190266444395
 21
103.2398721940031
 31
0.0
 11
85.64714671921036
 21
103.2175916453264
 31
0.0
 11
85.66139571745715
 21
103.1945109868763
 31
0.0
 11
85.67463110065821
 21
103.1706359344525
 31
0.0
 11
85.68683112740222
 21
103.1459671528307
 31
0.0
 11
85.69796807503434
 21
103.1205044978783
 31
0.0
 11
85.70800992491037
 21
103.0942424435845
 31
0.0
 11
85.7169175972492
 21
103.067174668311
 31
0.0
 11
85.72464543506496
 21
103.0392910399752
 31
0.0
 11
85.73113959712655
 21
103.0105795144421
 31
0.0
 11
85.73633749494886
 21
102.9810237000309
 31
0.0
 11
85.74016574640117
 21
102.9506038647835
 31
0.0
 11
85.74253795142196
 21
102.9192955044739
 31
0.0
 11
85.74307346157725
 21
102.8981167296323
 31
0.0
 11
85.74307343323495
 21
102.8873870025534
 31
0.0
  0
ARC
  5
1463
330
1F
100
AcDbEntity
  8
0
 62
     7
370
    70
100
AcDbCircle
 10
46.27955271894946
 20
119.4254058765831
 30
0.0
 40
1.21351221428571
100
AcDbArc
 50
312.2897770000019
 51
0.0076139999992352
  0
ELLIPSE
  5
1464
330
1F
100
AcDbEntity
  8
0
 62
     7
370
    70
100
AcDbEllipse
 10
67.5288326475209
 20
95.68421737658347
 30
0.0
 11
1.492609126227653
 21
-30.80910927908757
 31
0.0
210
0.0
220
0.0
230
0.9999999999999998
 40
0.98414
 41
3.83076660909843
 42
4.647769990126462
  0
LINE
  5
1465
330
1F
100
AcDbEntity
  8
0
 62
     7
 48
0.281995
370
    70
100
AcDbLine
 10
53.92878771894936
 20
141.7497075194404
 30
0.0
 11
53.92878771894936
 21
146.4440688007591
 31
0.0
  0
ELLIPSE
  5
1466
330
1F
100
AcDbEntity
  8
0
 62
     7
370
    70
100
AcDbEllipse
 10
67.52874279037808
 20
95.68421737658347
 30
0.0
 11
-1.492609126226817
 21
-30.80910927908762
 31
0.0
210
0.0
220
0.0
230
1.0
 40
0.98414
 41
1.635414054601285
 42
2.452418697628465
  0
LINE
  5
1467
330
1F
100
AcDbEntity
  8
0
 62
     7
370
    70
100
AcDbLine
 10
54.52378403964789
 20
146.4437340353485
 30
0.0
 11
83.02897212244237
 21
146.4276960353485
 31
0.0
  0
LINE
  5
1468
330
1F
100
AcDbEntity
  8
0
 62
     7
 48
0.281995
370
    70
100
AcDbLine
 10
81.12878771894934
 20
141.7497075194404
 30
0.0
 11
81.12878771894934
 21
146.4440688007591
 31
0.0
  0
ARC
  5
1469
330
1F
100
AcDbEntity
  8
0
 62
     7
370
    70
100
AcDbCircle
 10
88.77802271894926
 20
119.4254058765831
 30
0.0
 40
1.21351221428571
100
AcDbArc
 50
179.9923860000007
 51
227.7102229999981
  0
LINE
  5
146A
330
1F
100
AcDbEntity
  8
0
 62
     7
 48
0.064277
370
    70
100
AcDbLine
 10
87.56450200466357
 20
136.4934338051545
 30
0.0
 11
87.56450200466357
 21
139.8938260194405
 31
0.0
  0
LINE
  5
146B
330
1F
100
AcDbEntity
  8
0
 62
     7
 48
0.002099
370
    70
100
AcDbLine
 10
87.56450200466357
 20
137.3186235194404
 30
0.0
 11
87.56450200466357
 21
137.4205688765834
 31
0.0
  0
LINE
  5
146C
330
1F
100
AcDbEntity
  8
0
 62
     7
 48
0.004891
370
    70
100
AcDbLine
 10
87.56450200466357
 20
137.7663075908691
 30
0.0
 11
87.56450200466357
 21
137.5287495908691
 31
0.0
  0
LINE
  5
146D
330
1F
100
AcDbEntity
  8
0
 62
     7
 48
0.000862
370
    70
100
AcDbLine
 10
87.56450200466357
 20
137.9069777337259
 30
0.0
 11
87.56450200466357
 21
137.9488657337263
 31
0.0
  0
LINE
  5
146E
330
1F
100
AcDbEntity
  8
0
 62
     7
 48
0.004947
370
    70
100
AcDbLine
 10
87.56450200466357
 20
138.2790895194404
 30
0.0
 11
87.56450200466357
 21
138.0387848051548
 31
0.0
  0
LINE
  5
146F
330
1F
100
AcDbEntity
  8
0
 62
     7
 48
0.004667
370
    70
100
AcDbLine
 10
87.56450200466357
 20
138.6606545194405
 30
0.0
 11
87.56450200466357
 21
138.433978948012
 31
0.0
  0
LINE
  5
1470
330
1F
100
AcDbEntity
  8
0
 62
     7
 48
0.002974
370
    70
100
AcDbLine
 10
87.56450200466357
 20
138.8849986622975
 30
0.0
 11
87.56450200466357
 21
138.7405520908691
 31
0.0
  0
LINE
  5
1471
330
1F
100
AcDbEntity
  8
0
 62
     7
 48
0.002896
370
    70
100
AcDbLine
 10
87.56450200466357
 20
137.9069777337259
 30
0.0
 11
87.56450200466357
 21
137.7663075908691
 31
0.0
  0
LINE
  5
1472
330
1F
100
AcDbEntity
  8
0
 62
     7
 48
0.002282
370
    70
100
AcDbLine
 10
87.56450200466357
 20
138.3899355908691
 30
0.0
 11
87.56450200466357
 21
138.2790895194404
 31
0.0
  0
LINE
  5
1473
330
1F
100
AcDbEntity
  8
0
 62
     7
 48
0.001645
370
    70
100
AcDbLine
 10
87.56450200466357
 20
138.7405520908691
 30
0.0
 11
87.56450200466357
 21
138.6606545194405
 31
0.0
  0
LINE
  5
1474
330
1F
100
AcDbEntity
  8
0
 62
     7
 48
0.001066
370
    70
100
AcDbLine
 10
87.56450200466357
 20
138.9367782337263
 30
0.0
 11
87.56450200466357
 21
138.8849986622975
 31
0.0
  0
LINE
  5
1475
330
1F
100
AcDbEntity
  8
0
 62
     7
 48
0.000585
370
    70
100
AcDbLine
 10
87.56450200466357
 20
138.9652423051548
 30
0.0
 11
87.56450200466357
 21
138.9368340908691
 31
0.0
  0
LINE
  5
1476
330
1F
100
AcDbEntity
  8
0
 62
     7
 48
0.002227
370
    70
100
AcDbLine
 10
87.56450200466357
 20
137.5287495908691
 30
0.0
 11
87.56450200466357
 21
137.4205688765834
 31
0.0
  0
LINE
  5
1477
330
1F
100
AcDbEntity
  8
0
 62
     7
 48
0.001851
370
    70
100
AcDbLine
 10
87.56450200466357
 20
138.0387848051548
 30
0.0
 11
87.56450200466357
 21
137.9488657337263
 31
0.0
  0
LINE
  5
1478
330
1F
100
AcDbEntity
  8
0
 62
     7
 48
0.000895
370
    70
100
AcDbLine
 10
87.56450200466357
 20
138.433978948012
 30
0.0
 11
87.56450200466357
 21
138.3905026622975
 31
0.0
  0
LINE
  5
1479
330
1F
100
AcDbEntity
  8
0
 62
     7
 48
0.000249
370
    70
100
AcDbLine
 10
87.56450200466357
 20
134.1840858051545
 30
0.0
 11
87.56450200466357
 21
134.1719757337259
 31
0.0
  0
ARC
  5
147A
330
1F
100
AcDbEntity
  8
0
 62
     7
370
    70
100
AcDbCircle
 10
35.5289721224424
 20
138.4276960353486
 30
0.0
 40
8.0
100
AcDbArc
 50
89.99999999999348
 51
180.0
  0
LINE
  5
147B
330
1F
100
AcDbEntity
  8
0
 62
     7
 48
0.4125
370
    70
100
AcDbLine
 10
35.5289721224424
 20
146.4276960353485
 30
0.0
 11
54.52378403964789
 21
146.4437340353485
 31
0.0
  0
LINE
  5
147C
330
1F
100
AcDbEntity
  8
0
 62
     7
 48
0.4125
370
    70
100
AcDbLine
 10
83.02897212244237
 20
146.4276960353485
 30
0.0
 11
99.5289721224424
 21
146.4276960353485
 31
0.0
  0
ARC
  5
147D
330
1F
100
AcDbEntity
  8
0
 62
     7
370
    70
100
AcDbCircle
 10
99.5289721224424
 20
138.4276960353486
 30
0.0
 40
8.0
100
AcDbArc
 50
0.0
 51
89.99999999999348
  0
LINE
  5
1513
330
1F
100
AcDbEntity
  8
0
 62
     7
100
AcDbLine
 10
398.8958502031644
 20
135.5066167853564
 30
0.0
 11
398.8958502031644
 21
36.00576108568672
 31
0.0
  0
LINE
  5
1514
330
1F
100
AcDbEntity
  8
0
 62
     7
100
AcDbLine
 10
585.8916939476243
 20
135.5066167853564
 30
0.0
 11
585.8916939476243
 21
36.00576108568672
 31
0.0
  0
LINE
  5
1515
330
1F
100
AcDbEntity
  8
0
 62
     7
100
AcDbLine
 10
418.1454223533294
 20
16.75618893552158
 30
0.0
 11
566.6421217974594
 21
16.75618893552158
 31
0.0
  0
LINE
  5
1516
330
1F
100
AcDbEntity
  8
0
 62
     7
100
AcDbLine
 10
398.8958502031644
 20
36.00576108568672
 30
0.0
 11
418.1454223533294
 21
16.75618893552158
 31
0.0
  0
LINE
  5
1517
330
1F
100
AcDbEntity
  8
0
 62
     7
100
AcDbLine
 10
566.6421217974594
 20
16.75618893552158
 30
0.0
 11
585.8916939476243
 21
36.00576108568672
 31
0.0
  0
CIRCLE
  5
1518
330
1F
100
AcDbEntity
  8
0
 62
     7
100
AcDbCircle
 10
402.8958502031644
 20
19.25618893552179
 30
0.0
 40
1.5
  0
CIRCLE
  5
1519
330
1F
100
AcDbEntity
  8
0
 62
     7
100
AcDbCircle
 10
581.8958502031644
 20
19.25618893552179
 30
0.0
 40
1.5
  0
LINE
  5
151A
330
1F
100
AcDbEntity
  8
0
 62
     7
100
AcDbLine
 10
418.1454223533294
 20
154.7561889355215
 30
0.0
 11
566.6421217974594
 21
154.7561889355215
 31
0.0
  0
LINE
  5
151B
330
1F
100
AcDbEntity
  8
0
 62
     7
100
AcDbLine
 10
398.8958502031644
 20
135.5066167853564
 30
0.0
 11
418.1454223533294
 21
154.7561889355215
 31
0.0
  0
CIRCLE
  5
151C
330
1F
100
AcDbEntity
  8
0
 62
     7
100
AcDbCircle
 10
402.8958502031644
 20
152.2561889355215
 30
0.0
 40
1.5
  0
LINE
  5
151D
330
1F
100
AcDbEntity
  8
0
 62
     7
100
AcDbLine
 10
566.6421217974594
 20
154.7561889355215
 30
0.0
 11
585.8916939476243
 21
135.5066167853564
 31
0.0
  0
CIRCLE
  5
151E
330
1F
100
AcDbEntity
  8
0
 62
     7
100
AcDbCircle
 10
581.8958502031644
 20
152.2561889355215
 30
0.0
 40
1.5
  0
DIMENSION
  5
151F
330
1F
100
AcDbEntity
  8
0
 62
     1
100
AcDbDimension
  2
*D17
 10
585.8916939476243
 20
168.58773376054
 30
0.0
 11
495.2855164562845
 21
168.58773376054
 31
0.0
 70
   160
 71
     0
 42
186.9958437444599
  3
Standard
100
AcDbAlignedDimension
 13
398.8958502031644
 23
135.5066167853564
 33
0.0
 14
585.8916939476243
 24
135.5066167853564
 34
0.0
100
AcDbRotatedDimension
1001
ACAD
1000
DSTYLE
1002
{
1070
    41
1040
5.0
1070
   140
1040
5.0
1070
   271
1070
     1
1002
}
  0
DIMENSION
  5
1520
330
1F
100
AcDbEntity
  8
0
 62
     1
100
AcDbDimension
  2
*D18
 10
605.1959458755784
 20
154.7561889355215
 30
0.0
 11
605.1959458755784
 21
91.20698414028028
 31
0.0
 70
   160
 71
     0
 42
137.9999999999999
  3
Standard
100
AcDbAlignedDimension
 13
566.6421217974594
 23
16.75618893552158
 33
0.0
 14
566.7046217974594
 24
154.7561889355215
 34
0.0
 50
90.0
100
AcDbRotatedDimension
1001
ACAD
1000
DSTYLE
1002
{
1070
    41
1040
5.0
1070
   140
1040
5.0
1070
   271
1070
     1
1002
}
  0
DIMENSION
  5
1521
330
1F
100
AcDbEntity
  8
0
 62
     1
100
AcDbDimension
  2
*D19
 10
581.8958502031644
 20
2.928793420699012
 30
0.0
 11
497.1278519354363
 21
2.928793420699012
 31
0.0
 70
   160
 71
     0
 42
179.0000000000001
  3
Standard
100
AcDbAlignedDimension
 13
402.8958502031644
 23
19.25618893552179
 33
0.0
 14
581.8958502031644
 24
19.25618893552179
 34
0.0
100
AcDbRotatedDimension
1001
ACAD
1000
DSTYLE
1002
{
1070
    41
1040
5.0
1070
   140
1040
5.0
1070
   271
1070
     1
1002
}
  0
DIMENSION
  5
1522
330
1F
100
AcDbEntity
  8
0
 62
     1
100
AcDbDimension
  2
*D20
 10
382.2655924553476
 20
152.2561889355215
 30
0.0
 11
382.2655924553476
 21
83.72304630761018
 31
0.0
 70
   160
 71
     0
 42
132.9999999999997
  3
Standard
100
AcDbAlignedDimension
 13
402.8958502031644
 23
19.25618893552179
 33
0.0
 14
402.9583502031644
 24
152.2561889355215
 34
0.0
 50
90.0
100
AcDbRotatedDimension
1001
ACAD
1000
DSTYLE
1002
{
1070
    41
1040
5.0
1070
   140
1040
5.0
1070
   271
1070
     1
1002
}
  0
ENDSEC
  0
SECTION
  2
OBJECTS
  0
DICTIONARY
  5
C
330
0
100
AcDbDictionary
281
     1
  3
ACAD_CIP_PREVIOUS_PRODUCT_INFO
350
E5A
  3
ACAD_COLOR
350
73
  3
ACAD_DETAILVIEWSTYLE
350
E57
  3
ACAD_GROUP
350
D
  3
ACAD_LAYOUT
350
1A
  3
ACAD_MATERIAL
350
72
  3
ACAD_MLEADERSTYLE
350
D7
  3
ACAD_MLINESTYLE
350
17
  3
ACAD_PLOTSETTINGS
350
19
  3
ACAD_PLOTSTYLENAME
350
E
  3
ACAD_SCALELIST
350
B6
  3
ACAD_SECTIONVIEWSTYLE
350
E55
  3
ACAD_TABLESTYLE
350
86
  3
ACAD_VISUALSTYLE
350
99
  3
ACDB_RECOMPOSE_DATA
350
15B0
  3
AcDbVariableDictionary
350
66
  3
DWGPROPS
350
15B1
  0
DICTIONARY
  5
F20
330
2
100
AcDbDictionary
280
     1
281
     1
  3
ACAD_LAYERSTATES
360
F21
  0
DICTIONARY
  5
E6
330
10
100
AcDbDictionary
280
     1
281
     1
  3
ADSK_XREC_LAYER_RECONCILED
360
243
  0
XRECORD
  5
E5A
102
{ACAD_REACTORS
330
C
102
}
330
C
100
AcDbXrecord
280
     1
300
ACD
300
2016
300
ACD_F_S_TL
  0
DICTIONARY
  5
73
102
{ACAD_REACTORS
330
C
102
}
330
C
100
AcDbDictionary
281
     1
  0
DICTIONARY
  5
E57
102
{ACAD_REACTORS
330
C
102
}
330
C
100
AcDbDictionary
281
     1
  3
Imperial24
350
E58
  3
Metric50
350
E62
  0
DICTIONARY
  5
D
102
{ACAD_REACTORS
330
C
102
}
330
C
100
AcDbDictionary
281
     1
  0
DICTIONARY
  5
1A
102
{ACAD_REACTORS
330
C
102
}
330
C
100
AcDbDictionary
281
     1
  3
Layout1
350
59
  3
Layout2
350
5E
  3
Model
350
22
  0
DICTIONARY
  5
72
102
{ACAD_REACTORS
330
C
102
}
330
C
100
AcDbDictionary
281
     1
  3
ByBlock
350
97
  3
ByLayer
350
96
  3
Global
350
98
  0
DICTIONARY
  5
D7
102
{ACAD_REACTORS
330
C
102
}
330
C
100
AcDbDictionary
281
     1
  3
Annotativa
350
E5
  3
Standard
350
D8
  0
DICTIONARY
  5
17
102
{ACAD_REACTORS
330
C
102
}
330
C
100
AcDbDictionary
281
     1
  3
Standard
350
18
  0
DICTIONARY
  5
19
102
{ACAD_REACTORS
330
C
102
}
330
C
100
AcDbDictionary
281
     1
  0
ACDBDICTIONARYWDFLT
  5
E
102
{ACAD_REACTORS
330
C
102
}
330
C
100
AcDbDictionary
281
     1
  3
Normal
350
F
100
AcDbDictionaryWithDefault
340
F
  0
DICTIONARY
  5
B6
102
{ACAD_REACTORS
330
C
102
}
330
C
100
AcDbDictionary
281
     1
  3
A0
350
B7
  3
A1
350
124
  3
A2
350
125
  3
A3
350
126
  3
A4
350
127
  3
A5
350
128
  3
A6
350
129
  3
A7
350
12A
  3
A8
350
12B
  3
A9
350
12C
  3
B0
350
12D
  3
B1
350
12E
  3
B2
350
12F
  3
B3
350
130
  3
B4
350
131
  3
B5
350
132
  3
B6
350
133
  3
B7
350
134
  3
B8
350
135
  3
B9
350
136
  3
C0
350
137
  3
C1
350
138
  3
C2
350
139
  3
C3
350
13A
  3
C4
350
13B
  3
C5
350
13C
  3
C6
350
13D
  3
C7
350
13E
  3
C8
350
13F
  3
C9
350
140
  3
D0
350
141
  3
D1
350
142
  3
D2
350
143
  0
DICTIONARY
  5
E55
102
{ACAD_REACTORS
330
C
102
}
330
C
100
AcDbDictionary
281
     1
  3
Imperial24
350
E56
  3
Metric50
350
E61
  0
DICTIONARY
  5
86
102
{ACAD_REACTORS
330
C
102
}
330
C
100
AcDbDictionary
281
     1
  3
Standard
350
87
  0
DICTIONARY
  5
99
102
{ACAD_REACTORS
330
C
102
}
330
C
100
AcDbDictionary
281
     1
  3
2dWireframe
350
9F
  3
3D Hidden
350
A1
  3
3dWireframe
350
A0
  3
Basic
350
9E
  3
Brighten
350
A5
  3
ColorChange
350
A9
  3
Conceptual
350
A2
  3
Dim
350
A4
  3
EdgeColorOff
350
E54
  3
Facepattern
350
A8
  3
Flat
350
9A
  3
FlatWithEdges
350
9B
  3
Gouraud
350
9C
  3
GouraudWithEdges
350
9D
  3
Hidden
350
E4C
  3
JitterOff
350
E52
  3
Linepattern
350
A7
  3
OverhangOff
350
E53
  3
Realistic
350
A3
  3
Shaded
350
E51
  3
Shaded with edges
350
E50
  3
Shades of Gray
350
E4D
  3
Sketchy
350
E4E
  3
Thicken
350
A6
  3
Wireframe
350
E4B
  3
X-Ray
350
E4F
  0
XRECORD
  5
15B0
102
{ACAD_REACTORS
330
C
102
}
330
C
100
AcDbXrecord
280
     1
 90
        1
330
87
  0
DICTIONARY
  5
66
102
{ACAD_REACTORS
330
C
102
}
330
C
100
AcDbDictionary
281
     1
  3
CANNOSCALE
350
F0
  3
CMLEADERSTYLE
350
EF
  3
CTABLESTYLE
350
89
  3
CVIEWDETAILSTYLE
350
11EC
  3
CVIEWSECTIONSTYLE
350
11ED
  3
DIMASSOC
350
67
  3
HIDETEXT
350
6B
  3
INDEXCTL
350
247
  3
LIGHTINGUNITS
350
245
  3
MSLTSCALE
350
244
  3
SORTENTS
350
246
  3
XCLIPFRAME
350
15AE
  0
XRECORD
  5
15B1
102
{ACAD_REACTORS
330
C
102
}
330
C
100
AcDbXrecord
280
     1
  1
DWGPROPS COOKIE
  2

  3

  4

  6

  7

  8
admx2760
  9

300
=
301
=
302
=
303
=
304
=
305
=
306
=
307
=
308
=
309
=
 40
0.0225319560185185
 41
2455098.373449479
 42
2457233.376050208
  1

 90
        0
  0
DICTIONARY
  5
F21
102
{ACAD_REACTORS
330
F20
102
}
330
F20
100
AcDbDictionary
281
     1
  0
XRECORD
  5
243
102
{ACAD_REACTORS
330
E6
102
}
330
E6
100
AcDbXrecord
280
     1
290
     1
  0
ACDBDETAILVIEWSTYLE
  5
E58
102
{ACAD_XDICTIONARY
360
15EF
102
}
102
{ACAD_REACTORS
330
E57
102
}
330
E57
100
AcDbModelDocViewStyle
 70
     0
  3
Imperial24
290
     0
100
AcDbDetailViewStyle
 70
     0
 71
     0
 90
        3
 71
     1
340
11
 40
0.24
340
0
 40
0.24
300

 40
0.36
280
     3
 71
     2
340
16
 90
       25
 71
     3
340
11
 40
0.24
 90
        1
 40
0.75
 90
        1
300
%<\AcVar ViewType \f "%tc1">% %<\AcVar ViewDetailId>%\PSCALA %<\AcVar ViewScale \f "%sn">%
 71
     4
340
16
 90
       25
340
16
 90
       25
280
     0
  0
ACDBDETAILVIEWSTYLE
  5
E62
102
{ACAD_XDICTIONARY
360
15F3
102
}
102
{ACAD_REACTORS
330
E57
102
}
330
E57
100
AcDbModelDocViewStyle
 70
     0
  3
Metric50
290
     0
100
AcDbDetailViewStyle
 70
     0
 71
     0
 90
        3
 71
     1
340
11
 40
5.0
340
0
 40
5.0
300

 40
0.0
280
     1
 71
     2
340
16
 90
       25
 71
     3
340
11
 40
5.0
 90
        0
 40
15.0
 90
        1
300
%<\AcVar ViewDetailId>% (%<\AcVar ViewScale \f "%sn">%)
 71
     4
340
16
 90
       25
340
16
 90
       25
280
     0
  0
LAYOUT
  5
59
102
{ACAD_XDICTIONARY
360
15B4
102
}
102
{ACAD_REACTORS
330
1A
102
}
330
1A
100
AcDbPlotSettings
  1

  2
None
  4

  6

 40
0.0
 41
0.0
 42
0.0
 43
0.0
 44
0.0
 45
0.0
 46
0.0
 47
0.0
 48
0.0
 49
0.0
140
0.0
141
0.0
142
1.0
143
1.0
 70
   688
 72
     0
 73
     0
 74
     5
  7

 75
    16
147
1.0
148
0.0
149
0.0
100
AcDbLayout
  1
Layout1
 70
     1
 71
     1
 10
0.0
 20
0.0
 11
12.0
 21
9.0
 12
0.0
 22
0.0
 32
0.0
 14
0.0
 24
0.0
 34
0.0
 15
0.0
 25
0.0
 35
0.0
146
0.0
 13
0.0
 23
0.0
 33
0.0
 16
1.0
 26
0.0
 36
0.0
 17
0.0
 27
1.0
 37
0.0
 76
     0
330
58
  0
LAYOUT
  5
5E
102
{ACAD_XDICTIONARY
360
15B6
102
}
102
{ACAD_REACTORS
330
1A
102
}
330
1A
100
AcDbPlotSettings
  1

  2
None
  4

  6

 40
0.0
 41
0.0
 42
0.0
 43
0.0
 44
0.0
 45
0.0
 46
0.0
 47
0.0
 48
0.0
 49
0.0
140
0.0
141
0.0
142
1.0
143
1.0
 70
   688
 72
     0
 73
     0
 74
     5
  7

 75
    16
147
1.0
148
0.0
149
0.0
100
AcDbLayout
  1
Layout2
 70
     1
 71
     2
 10
0.0
 20
0.0
 11
12.0
 21
9.0
 12
0.0
 22
0.0
 32
0.0
 14
0.0
 24
0.0
 34
0.0
 15
0.0
 25
0.0
 35
0.0
146
0.0
 13
0.0
 23
0.0
 33
0.0
 16
1.0
 26
0.0
 36
0.0
 17
0.0
 27
1.0
 37
0.0
 76
     0
330
5D
  0
LAYOUT
  5
22
102
{ACAD_XDICTIONARY
360
15B2
102
}
102
{ACAD_REACTORS
330
1A
102
}
330
1A
100
AcDbPlotSettings
  1

  2
none_device
  4
ANSI_A_(8.50_x_11.00_Inches)
  6

 40
6.349999904632567
 41
19.04999923706055
 42
6.350006103515625
 43
19.04998779296875
 44
215.8999938964844
 45
279.3999938964844
 46
0.0
 47
0.0
 48
0.0
 49
0.0
140
0.0
141
0.0
142
1.0
143
2.584895464708373
 70
 11952
 72
     0
 73
     1
 74
     0
  7

 75
     0
147
0.3868628397755418
148
0.0
149
0.0
100
AcDbLayout
  1
Model
 70
     1
 71
     0
 10
0.0
 20
0.0
 11
12.0
 21
9.0
 12
0.0
 22
0.0
 32
0.0
 14
0.0
 24
0.0
 34
0.0
 15
0.0
 25
0.0
 35
0.0
146
0.0
 13
0.0
 23
0.0
 33
0.0
 16
1.0
 26
0.0
 36
0.0
 17
0.0
 27
1.0
 37
0.0
 76
     0
330
1F
331
94
  0
MATERIAL
  5
97
102
{ACAD_XDICTIONARY
360
944
102
}
102
{ACAD_REACTORS
330
72
102
}
330
72
100
AcDbMaterial
  1
ByBlock
  0
MATERIAL
  5
96
102
{ACAD_XDICTIONARY
360
942
102
}
102
{ACAD_REACTORS
330
72
102
}
330
72
100
AcDbMaterial
  1
ByLayer
  0
MATERIAL
  5
98
102
{ACAD_XDICTIONARY
360
110
102
}
102
{ACAD_REACTORS
330
72
102
}
330
72
100
AcDbMaterial
  1
Global
 43
0.0208000000566244
 43
0.0
 43
0.0
 43
0.0
 43
0.0
 43
0.0208000000566244
 43
0.0
 43
0.0
 43
0.0
 43
0.0
 43
1.0
 43
0.0
 43
0.0
 43
0.0
 43
0.0
 43
1.0
 49
0.0208000000566244
 49
0.0
 49
0.0
 49
0.0
 49
0.0
 49
0.0208000000566244
 49
0.0
 49
0.0
 49
0.0
 49
0.0
 49
1.0
 49
0.0
 49
0.0
 49
0.0
 49
0.0
 49
1.0
142
0.0208000000566244
142
0.0
142
0.0
142
0.0
142
0.0
142
0.0208000000566244
142
0.0
142
0.0
142
0.0
142
0.0
142
1.0
142
0.0
142
0.0
142
0.0
142
0.0
142
1.0
144
0.0208000000566244
144
0.0
144
0.0
144
0.0
144
0.0
144
0.0208000000566244
144
0.0
144
0.0
144
0.0
144
0.0
144
1.0
144
0.0
144
0.0
144
0.0
144
0.0
144
1.0
1001
ACAD
1070
    -1
1070
     3
1070
     0
1000

1071
        0
1070
     0
  0
MLEADERSTYLE
  5
E5
102
{ACAD_REACTORS
330
D7
102
}
330
D7
100
AcDbMLeaderStyle
170
     2
171
     1
172
     0
 90
        2
 40
0.0
 41
0.0
173
     1
 91
-1056964608
340
14
 92
       -2
290
     1
 42
0.09
291
     1
 43
0.36
  3
Standard
 44
0.18
300

342
11
174
     1
178
     1
175
     1
176
     0
 93
-1056964608
 45
0.18
292
     0
297
     0
 46
0.18
 94
-1056964608
 47
1.0
 49
1.0
140
1.0
293
     1
141
0.0
294
     1
177
     0
142
1.0
295
     0
296
     1
143
0.125
1001
ACAD_MLEADERVER
1070
     2
  0
MLEADERSTYLE
  5
D8
102
{ACAD_REACTORS
330
D7
102
}
330
D7
100
AcDbMLeaderStyle
170
     2
171
     1
172
     0
 90
        2
 40
0.0
 41
0.0
173
     1
 91
-1056964608
340
14
 92
       -2
290
     1
 42
0.09
291
     1
 43
0.36
  3
Standard
 44
0.18
300

342
11
174
     1
178
     1
175
     1
176
     0
 93
-1056964608
 45
0.18
292
     0
297
     0
 46
0.18
 94
-1056964608
 47
1.0
 49
1.0
140
1.0
293
     1
141
0.0
294
     1
177
     0
142
1.0
295
     0
296
     0
143
0.125
1001
ACAD_MLEADERVER
1070
     2
  0
MLINESTYLE
  5
18
102
{ACAD_REACTORS
330
17
102
}
330
17
100
AcDbMlineStyle
  2
STANDARD
 70
     0
  3

 62
   256
 51
90.0
 52
90.0
 71
     2
 49
0.5
 62
   256
  6
BYLAYER
 49
-0.5
 62
   256
  6
BYLAYER
  0
ACDBPLACEHOLDER
  5
F
102
{ACAD_REACTORS
330
E
102
}
330
E
  0
SCALE
  5
B7
102
{ACAD_REACTORS
330
B6
102
}
330
B6
100
AcDbScale
 70
     0
300
1:1
140
1.0
141
1.0
290
     1
  0
SCALE
  5
124
102
{ACAD_REACTORS
330
B6
102
}
330
B6
100
AcDbScale
 70
     0
300
1:2
140
1.0
141
2.0
290
     0
  0
SCALE
  5
125
102
{ACAD_REACTORS
330
B6
102
}
330
B6
100
AcDbScale
 70
     0
300
1:4
140
1.0
141
4.0
290
     0
  0
SCALE
  5
126
102
{ACAD_REACTORS
330
B6
102
}
330
B6
100
AcDbScale
 70
     0
300
1:5
140
1.0
141
5.0
290
     0
  0
SCALE
  5
127
102
{ACAD_REACTORS
330
B6
102
}
330
B6
100
AcDbScale
 70
     0
300
1:8
140
1.0
141
8.0
290
     0
  0
SCALE
  5
128
102
{ACAD_REACTORS
330
B6
102
}
330
B6
100
AcDbScale
 70
     0
300
1:10
140
1.0
141
10.0
290
     0
  0
SCALE
  5
129
102
{ACAD_REACTORS
330
B6
102
}
330
B6
100
AcDbScale
 70
     0
300
1:16
140
1.0
141
16.0
290
     0
  0
SCALE
  5
12A
102
{ACAD_REACTORS
330
B6
102
}
330
B6
100
AcDbScale
 70
     0
300
1:20
140
1.0
141
20.0
290
     0
  0
SCALE
  5
12B
102
{ACAD_REACTORS
330
B6
102
}
330
B6
100
AcDbScale
 70
     0
300
1:30
140
1.0
141
30.0
290
     0
  0
SCALE
  5
12C
102
{ACAD_REACTORS
330
B6
102
}
330
B6
100
AcDbScale
 70
     0
300
1:40
140
1.0
141
40.0
290
     0
  0
SCALE
  5
12D
102
{ACAD_REACTORS
330
B6
102
}
330
B6
100
AcDbScale
 70
     0
300
1:50
140
1.0
141
50.0
290
     0
  0
SCALE
  5
12E
102
{ACAD_REACTORS
330
B6
102
}
330
B6
100
AcDbScale
 70
     0
300
1:100
140
1.0
141
100.0
290
     0
  0
SCALE
  5
12F
102
{ACAD_REACTORS
330
B6
102
}
330
B6
100
AcDbScale
 70
     0
300
2:1
140
2.0
141
1.0
290
     0
  0
SCALE
  5
130
102
{ACAD_REACTORS
330
B6
102
}
330
B6
100
AcDbScale
 70
     0
300
4:1
140
4.0
141
1.0
290
     0
  0
SCALE
  5
131
102
{ACAD_REACTORS
330
B6
102
}
330
B6
100
AcDbScale
 70
     0
300
8:1
140
8.0
141
1.0
290
     0
  0
SCALE
  5
132
102
{ACAD_REACTORS
330
B6
102
}
330
B6
100
AcDbScale
 70
     0
300
10:1
140
10.0
141
1.0
290
     0
  0
SCALE
  5
133
102
{ACAD_REACTORS
330
B6
102
}
330
B6
100
AcDbScale
 70
     0
300
100:1
140
100.0
141
1.0
290
     0
  0
SCALE
  5
134
102
{ACAD_REACTORS
330
B6
102
}
330
B6
100
AcDbScale
 70
     0
300
1/128" = 1'-0"
140
0.0078125
141
12.0
290
     0
  0
SCALE
  5
135
102
{ACAD_REACTORS
330
B6
102
}
330
B6
100
AcDbScale
 70
     0
300
1/64" = 1'-0"
140
0.015625
141
12.0
290
     0
  0
SCALE
  5
136
102
{ACAD_REACTORS
330
B6
102
}
330
B6
100
AcDbScale
 70
     0
300
1/32" = 1'-0"
140
0.03125
141
12.0
290
     0
  0
SCALE
  5
137
102
{ACAD_REACTORS
330
B6
102
}
330
B6
100
AcDbScale
 70
     0
300
1/16" = 1'-0"
140
0.0625
141
12.0
290
     0
  0
SCALE
  5
138
102
{ACAD_REACTORS
330
B6
102
}
330
B6
100
AcDbScale
 70
     0
300
3/32" = 1'-0"
140
0.09375
141
12.0
290
     0
  0
SCALE
  5
139
102
{ACAD_REACTORS
330
B6
102
}
330
B6
100
AcDbScale
 70
     0
300
1/8" = 1'-0"
140
0.125
141
12.0
290
     0
  0
SCALE
  5
13A
102
{ACAD_REACTORS
330
B6
102
}
330
B6
100
AcDbScale
 70
     0
300
3/16" = 1'-0"
140
0.1875
141
12.0
290
     0
  0
SCALE
  5
13B
102
{ACAD_REACTORS
330
B6
102
}
330
B6
100
AcDbScale
 70
     0
300
1/4" = 1'-0"
140
0.25
141
12.0
290
     0
  0
SCALE
  5
13C
102
{ACAD_REACTORS
330
B6
102
}
330
B6
100
AcDbScale
 70
     0
300
3/8" = 1'-0"
140
0.375
141
12.0
290
     0
  0
SCALE
  5
13D
102
{ACAD_REACTORS
330
B6
102
}
330
B6
100
AcDbScale
 70
     0
300
1/2" = 1'-0"
140
0.5
141
12.0
290
     0
  0
SCALE
  5
13E
102
{ACAD_REACTORS
330
B6
102
}
330
B6
100
AcDbScale
 70
     0
300
3/4" = 1'-0"
140
0.75
141
12.0
290
     0
  0
SCALE
  5
13F
102
{ACAD_REACTORS
330
B6
102
}
330
B6
100
AcDbScale
 70
     0
300
1" = 1'-0"
140
1.0
141
12.0
290
     0
  0
SCALE
  5
140
102
{ACAD_REACTORS
330
B6
102
}
330
B6
100
AcDbScale
 70
     0
300
1-1/2" = 1'-0"
140
1.5
141
12.0
290
     0
  0
SCALE
  5
141
102
{ACAD_REACTORS
330
B6
102
}
330
B6
100
AcDbScale
 70
     0
300
3" = 1'-0"
140
3.0
141
12.0
290
     0
  0
SCALE
  5
142
102
{ACAD_REACTORS
330
B6
102
}
330
B6
100
AcDbScale
 70
     0
300
6" = 1'-0"
140
6.0
141
12.0
290
     0
  0
SCALE
  5
143
102
{ACAD_REACTORS
330
B6
102
}
330
B6
100
AcDbScale
 70
     0
300
1'-0" = 1'-0"
140
12.0
141
12.0
290
     0
  0
ACDBSECTIONVIEWSTYLE
  5
E56
102
{ACAD_XDICTIONARY
360
15ED
102
}
102
{ACAD_REACTORS
330
E55
102
}
330
E55
100
AcDbModelDocViewStyle
 70
     0
  3
Imperial24
290
     0
100
AcDbSectionViewStyle
 70
     0
 71
     0
 90
       78
 71
     1
340
11
 40
0.24
340
0
340
0
 40
0.24
300
I, O, Q, S, X, Z
 40
0.48
 90
        3
 40
0.18
 90
        1
 71
     2
340
16
 90
       25
340
16
 90
       50
 40
0.24
 40
0.0
 40
0.24
 71
     3
340
11
 40
0.24
 90
        1
 40
0.75
 90
        1
300
%<\AcVar ViewType \f "%tc1">% %<\AcVar ViewSectionStartId>%-%<\AcVar ViewSectionEndId>%\PSCALA %<\AcVar ViewScale \f "%sn">%
 71
     4
300
ANSI31
 40
1.0
 90
        0
290
     0
290
     0
 90
        6
 40
0.0
 40
1.570796326794896
 40
0.2617993877991494
 40
1.308996938995747
 40
-0.2617993877991494
 40
1.832595714594044
  0
ACDBSECTIONVIEWSTYLE
  5
E61
102
{ACAD_XDICTIONARY
360
15F1
102
}
102
{ACAD_REACTORS
330
E55
102
}
330
E55
100
AcDbModelDocViewStyle
 70
     0
  3
Metric50
290
     0
100
AcDbSectionViewStyle
 70
     0
 71
     0
 90
      102
 71
     1
340
11
 40
5.0
340
0
340
0
 40
5.0
300
I, O, Q, S, X, Z
 40
10.0
 90
        0
 40
2.5
 90
        0
 71
     2
340
16
 90
       25
340
16
 90
       50
 40
5.0
 40
2.5
 40
5.0
 71
     3
340
11
 40
5.0
 90
        0
 40
15.0
 90
        1
300
%<\AcVar ViewSectionStartId>%-%<\AcVar ViewSectionEndId>% (%<\AcVar ViewScale \f "%sn">%)
 71
     4
300
ANSI31
 40
1.0
 90
        0
290
     0
290
     0
 90
        6
 40
0.0
 40
1.570796326794896
 40
0.2617993877991494
 40
1.308996938995747
 40
-0.2617993877991494
 40
1.832595714594044
  0
TABLESTYLE
  5
87
102
{ACAD_XDICTIONARY
360
104
102
}
102
{ACAD_REACTORS
330
86
102
}
330
86
100
AcDbTableStyle
  3
Standard
 70
     0
 71
     0
 40
0.06
 41
0.06
280
     0
281
     0
  7
Standard
140
0.18
170
     2
 62
     0
 63
     7
283
     0
274
    -2
284
     1
 64
     0
275
    -2
285
     1
 65
     0
276
    -2
286
     1
 66
     0
277
    -2
287
     1
 67
     0
278
    -2
288
     1
 68
     0
279
    -2
289
     1
 69
     0
  7
Standard
140
0.25
170
     5
 62
     0
 63
     7
283
     0
274
    -2
284
     1
 64
     0
275
    -2
285
     1
 65
     0
276
    -2
286
     1
 66
     0
277
    -2
287
     1
 67
     0
278
    -2
288
     1
 68
     0
279
    -2
289
     1
 69
     0
  7
Standard
140
0.18
170
     5
 62
     0
 63
     7
283
     0
274
    -2
284
     1
 64
     0
275
    -2
285
     1
 65
     0
276
    -2
286
     1
 66
     0
277
    -2
287
     1
 67
     0
278
    -2
288
     1
 68
     0
279
    -2
289
     1
 69
     0
  0
VISUALSTYLE
  5
9F
102
{ACAD_XDICTIONARY
360
15C3
102
}
102
{ACAD_REACTORS
330
99
102
}
330
99
100
AcDbVisualStyle
  2

 70
     4
 71
     0
 72
     2
 73
     1
 90
        0
 40
-0.6
 41
-30.0
 62
     5
 63
     7
 74
     1
 91
        4
 64
     7
 65
   257
 75
     1
175
     1
 42
1.0
 92
        0
 66
   257
 43
1.0
 76
     1
 77
     6
 78
     2
 67
     7
 79
     5
170
     0
171
     0
290
     0
174
     0
 93
        1
 44
0.0
173
     0
291
     0
 45
0.0
1001
ACAD
1000
AcDbSavedByObjectVersion
1070
     0
  0
VISUALSTYLE
  5
A1
102
{ACAD_XDICTIONARY
360
15C7
102
}
102
{ACAD_REACTORS
330
99
102
}
330
99
100
AcDbVisualStyle
  2

 70
     6
 71
     1
 72
     2
 73
     2
 90
        0
 40
-0.6
 41
-30.0
 62
     5
 63
     7
 74
     2
 91
        2
 64
     7
 65
   257
 75
     2
175
     1
 42
40.0
 92
        0
 66
   257
 43
1.0
 76
     1
 77
     6
 78
     2
 67
     7
 79
     3
170
     0
171
     0
290
     0
174
     0
 93
        1
 44
0.0
173
     0
291
     0
 45
0.0
1001
ACAD
1000
AcDbSavedByObjectVersion
1070
     0
  0
VISUALSTYLE
  5
A0
102
{ACAD_XDICTIONARY
360
15C5
102
}
102
{ACAD_REACTORS
330
99
102
}
330
99
100
AcDbVisualStyle
  2

 70
     5
 71
     0
 72
     2
 73
     1
 90
        0
 40
-0.6
 41
-30.0
 62
     5
 63
     7
 74
     1
 91
        4
 64
     7
 65
   257
 75
     1
175
     1
 42
1.0
 92
        0
 66
   257
 43
1.0
 76
     1
 77
     6
 78
     2
 67
     7
 79
     5
170
     0
171
     0
290
     0
174
     0
 93
        1
 44
0.0
173
     0
291
     0
 45
0.0
1001
ACAD
1000
AcDbSavedByObjectVersion
1070
     0
  0
VISUALSTYLE
  5
9E
102
{ACAD_XDICTIONARY
360
15C1
102
}
102
{ACAD_REACTORS
330
99
102
}
330
99
100
AcDbVisualStyle
  2

 70
     7
 71
     1
 72
     0
 73
     1
 90
        0
 40
-0.6
 41
-30.0
 62
     5
 63
     7
 74
     0
 91
        4
 64
     7
 65
   257
 75
     1
175
     1
 42
1.0
 92
        8
 66
     7
 43
1.0
 76
     1
 77
     6
 78
     2
 67
     7
 79
     5
170
     0
171
     0
290
     0
174
     0
 93
        1
 44
0.0
173
     0
291
     1
 45
0.0
1001
ACAD
1000
AcDbSavedByObjectVersion
1070
     0
  0
VISUALSTYLE
  5
A5
102
{ACAD_XDICTIONARY
360
15CF
102
}
102
{ACAD_REACTORS
330
99
102
}
330
99
100
AcDbVisualStyle
  2

 70
    12
 71
     2
 72
     2
 73
     1
 90
        0
 40
-0.6
 41
-30.0
 62
     5
 63
     7
 74
     1
 91
        4
 64
     7
 65
   257
 75
     1
175
     1
 42
1.0
 92
        8
 66
     7
 43
1.0
 76
     1
 77
     6
 78
     2
 67
     7
 79
     5
170
     0
171
     0
290
     0
174
     0
 93
        1
 44
50.0
173
     0
291
     1
 45
0.0
1001
ACAD
1000
AcDbSavedByObjectVersion
1070
     0
  0
VISUALSTYLE
  5
A9
102
{ACAD_XDICTIONARY
360
15D7
102
}
102
{ACAD_REACTORS
330
99
102
}
330
99
100
AcDbVisualStyle
  2

 70
    16
 71
     2
 72
     2
 73
     3
 90
        0
 40
-0.6
 41
-30.0
 62
     5
 63
     8
 74
     1
 91
        4
 64
     7
 65
   257
 75
     1
175
     1
 42
1.0
 92
        8
 66
     8
 43
1.0
 76
     1
 77
     6
 78
     2
 67
     7
 79
     5
170
     0
171
     0
290
     0
174
     0
 93
        1
 44
0.0
173
     0
291
     1
 45
0.0
1001
ACAD
1000
AcDbSavedByObjectVersion
1070
     0
  0
VISUALSTYLE
  5
A2
102
{ACAD_XDICTIONARY
360
15C9
102
}
102
{ACAD_REACTORS
330
99
102
}
330
99
100
AcDbVisualStyle
  2

 70
     9
 71
     3
 72
     2
 73
     1
 90
        0
 40
-0.6
 41
-30.0
 62
     5
 63
     7
 74
     2
 91
        2
 64
     7
 65
   257
 75
     1
175
     1
 42
40.0
 92
        8
 66
     7
 43
1.0
 76
     1
 77
     6
 78
     2
 67
     7
 79
     3
170
     0
171
     0
290
     0
174
     0
 93
        1
 44
0.0
173
     0
291
     0
 45
0.0
1001
ACAD
1000
AcDbSavedByObjectVersion
1070
     0
  0
VISUALSTYLE
  5
A4
102
{ACAD_XDICTIONARY
360
15CD
102
}
102
{ACAD_REACTORS
330
99
102
}
330
99
100
AcDbVisualStyle
  2

 70
    11
 71
     2
 72
     2
 73
     1
 90
        0
 40
-0.6
 41
-30.0
 62
     5
 63
     7
 74
     1
 91
        4
 64
     7
 65
   257
 75
     1
175
     1
 42
1.0
 92
        8
 66
     7
 43
1.0
 76
     1
 77
     6
 78
     2
 67
     7
 79
     5
170
     0
171
     0
290
     0
174
     0
 93
        1
 44
-50.0
173
     0
291
     1
 45
0.0
1001
ACAD
1000
AcDbSavedByObjectVersion
1070
     0
  0
VISUALSTYLE
  5
E54
102
{ACAD_XDICTIONARY
360
15EB
102
}
102
{ACAD_REACTORS
330
99
102
}
330
99
100
AcDbVisualStyle
  2

 70
    22
 71
     2
 72
     2
 73
     0
 90
        0
 40
-0.6
 41
-30.0
 62
     5
 63
     7
 74
     1
 91
        4
 64
     7
 65
   257
 75
     1
175
     1
 42
1.0
 92
        8
 66
     7
 43
1.0
 76
     1
 77
     6
 78
     2
 67
     7
 79
     5
170
     0
171
     0
290
     0
174
     0
 93
        1
 44
0.0
173
     0
291
     1
 45
0.0
1001
ACAD
1000
AcDbSavedByObjectVersion
1070
     0
  0
VISUALSTYLE
  5
A8
102
{ACAD_XDICTIONARY
360
15D5
102
}
102
{ACAD_REACTORS
330
99
102
}
330
99
100
AcDbVisualStyle
  2

 70
    15
 71
     2
 72
     2
 73
     1
 90
        0
 40
-0.6
 41
-30.0
 62
     5
 63
     7
 74
     1
 91
        4
 64
     7
 65
   257
 75
     1
175
     1
 42
1.0
 92
        8
 66
     7
 43
1.0
 76
     1
 77
     6
 78
     2
 67
     7
 79
     5
170
     0
171
     0
290
     0
174
     0
 93
        1
 44
0.0
173
     0
291
     1
 45
0.0
1001
ACAD
1000
AcDbSavedByObjectVersion
1070
     0
  0
VISUALSTYLE
  5
9A
102
{ACAD_XDICTIONARY
360
15B9
102
}
102
{ACAD_REACTORS
330
99
102
}
330
99
100
AcDbVisualStyle
  2

 70
     0
 71
     2
 72
     1
 73
     1
 90
        2
 40
-0.6
 41
30.0
 62
     5
 63
     7
 74
     0
 91
        4
 64
     7
 65
   257
 75
     1
175
     1
 42
1.0
 92
        8
 66
     7
 43
1.0
 76
     1
 77
     6
 78
     2
 67
     7
 79
     5
170
     0
171
     0
290
     0
174
     0
 93
        1
 44
0.0
173
     0
291
     1
 45
0.0
1001
ACAD
1000
AcDbSavedByObjectVersion
1070
     0
  0
VISUALSTYLE
  5
9B
102
{ACAD_XDICTIONARY
360
15BB
102
}
102
{ACAD_REACTORS
330
99
102
}
330
99
100
AcDbVisualStyle
  2

 70
     1
 71
     2
 72
     1
 73
     1
 90
        2
 40
-0.6
 41
30.0
 62
     5
 63
     7
 74
     1
 91
        4
 64
     7
 65
   257
 75
     1
175
     1
 42
1.0
 92
        0
 66
   257
 43
1.0
 76
     1
 77
     6
 78
     2
 67
     7
 79
     5
170
     0
171
     0
290
     0
174
     0
 93
        1
 44
0.0
173
     0
291
     1
 45
0.0
1001
ACAD
1000
AcDbSavedByObjectVersion
1070
     0
  0
VISUALSTYLE
  5
9C
102
{ACAD_XDICTIONARY
360
15BD
102
}
102
{ACAD_REACTORS
330
99
102
}
330
99
100
AcDbVisualStyle
  2

 70
     2
 71
     2
 72
     2
 73
     1
 90
        2
 40
-0.6
 41
30.0
 62
     5
 63
     7
 74
     0
 91
        4
 64
     7
 65
   257
 75
     1
175
     1
 42
1.0
 92
        0
 66
     7
 43
1.0
 76
     1
 77
     6
 78
     2
 67
     7
 79
     5
170
     0
171
     0
290
     0
174
     0
 93
        1
 44
0.0
173
     0
291
     1
 45
0.0
1001
ACAD
1000
AcDbSavedByObjectVersion
1070
     0
  0
VISUALSTYLE
  5
9D
102
{ACAD_XDICTIONARY
360
15BF
102
}
102
{ACAD_REACTORS
330
99
102
}
330
99
100
AcDbVisualStyle
  2

 70
     3
 71
     2
 72
     2
 73
     1
 90
        2
 40
-0.6
 41
30.0
 62
     5
 63
     7
 74
     1
 91
        4
 64
     7
 65
   257
 75
     1
175
     1
 42
1.0
 92
        0
 66
   257
 43
1.0
 76
     1
 77
     6
 78
     2
 67
     7
 79
     5
170
     0
171
     0
290
     0
174
     0
 93
        1
 44
0.0
173
     0
291
     1
 45
0.0
1001
ACAD
1000
AcDbSavedByObjectVersion
1070
     0
  0
VISUALSTYLE
  5
E4C
102
{ACAD_XDICTIONARY
360
15DB
102
}
102
{ACAD_REACTORS
330
99
102
}
330
99
100
AcDbVisualStyle
  2

 70
     6
 71
     1
 72
     2
 73
     2
 90
        0
 40
-0.6
 41
-30.0
 62
     5
 63
     7
 74
     2
 91
        2
 64
     7
 65
   257
 75
     2
175
     1
 42
40.0
 92
        0
 66
   257
 43
1.0
 76
     1
 77
     6
 78
     2
 67
     7
 79
     3
170
     0
171
     0
290
     0
174
     0
 93
        1
 44
0.0
173
     0
291
     0
 45
0.0
1001
ACAD
1000
AcDbSavedByObjectVersion
1070
     0
  0
VISUALSTYLE
  5
E52
102
{ACAD_XDICTIONARY
360
15E7
102
}
102
{ACAD_REACTORS
330
99
102
}
330
99
100
AcDbVisualStyle
  2

 70
    20
 71
     2
 72
     2
 73
     0
 90
        0
 40
-0.6
 41
-30.0
 62
     5
 63
     7
 74
     1
 91
        4
 64
     7
 65
   257
 75
     1
175
     1
 42
1.0
 92
       10
 66
     7
 43
1.0
 76
     1
 77
     6
 78
     2
 67
     7
 79
     5
170
     0
171
     0
290
     0
174
     0
 93
        1
 44
0.0
173
     0
291
     1
 45
0.0
1001
ACAD
1000
AcDbSavedByObjectVersion
1070
     0
  0
VISUALSTYLE
  5
A7
102
{ACAD_XDICTIONARY
360
15D3
102
}
102
{ACAD_REACTORS
330
99
102
}
330
99
100
AcDbVisualStyle
  2

 70
    14
 71
     2
 72
     2
 73
     1
 90
        0
 40
-0.6
 41
-30.0
 62
     5
 63
     7
 74
     1
 91
        4
 64
     7
 65
   257
 75
     7
175
     7
 42
1.0
 92
        8
 66
     7
 43
1.0
 76
     1
 77
     6
 78
     2
 67
     7
 79
     5
170
     0
171
     0
290
     0
174
     0
 93
        1
 44
0.0
173
     0
291
     1
 45
0.0
1001
ACAD
1000
AcDbSavedByObjectVersion
1070
     0
  0
VISUALSTYLE
  5
E53
102
{ACAD_XDICTIONARY
360
15E9
102
}
102
{ACAD_REACTORS
330
99
102
}
330
99
100
AcDbVisualStyle
  2

 70
    21
 71
     2
 72
     2
 73
     0
 90
        0
 40
-0.6
 41
-30.0
 62
     5
 63
     7
 74
     1
 91
        4
 64
     7
 65
   257
 75
     1
175
     1
 42
1.0
 92
        9
 66
     7
 43
1.0
 76
     1
 77
     6
 78
     2
 67
     7
 79
     5
170
     0
171
     0
290
     0
174
     0
 93
        1
 44
0.0
173
     0
291
     1
 45
0.0
1001
ACAD
1000
AcDbSavedByObjectVersion
1070
     0
  0
VISUALSTYLE
  5
A3
102
{ACAD_XDICTIONARY
360
15CB
102
}
102
{ACAD_REACTORS
330
99
102
}
330
99
100
AcDbVisualStyle
  2

 70
     8
 71
     2
 72
     2
 73
     1
 90
        0
 40
-0.6
 41
-30.0
 62
     5
 63
     7
 74
     1
 91
        0
 64
     7
 65
   257
 75
     1
175
     1
 42
1.0
 92
        8
 66
     8
 43
1.0
 76
     1
 77
     6
 78
     2
 67
     7
 79
     5
170
     0
171
     0
290
     0
174
     0
 93
       13
 44
0.0
173
     0
291
     0
 45
0.0
1001
ACAD
1000
AcDbSavedByObjectVersion
1070
     0
  0
VISUALSTYLE
  5
E51
102
{ACAD_XDICTIONARY
360
15E5
102
}
102
{ACAD_REACTORS
330
99
102
}
330
99
100
AcDbVisualStyle
  2

 70
    27
 71
     2
 72
     2
 73
     1
 90
        2
 40
-0.6
 41
30.0
 62
     5
 63
     7
 74
     0
 91
        4
 64
     7
 65
   257
 75
     1
175
     1
 42
1.0
 92
        8
 66
   257
 43
1.0
 76
     1
 77
     6
 78
     2
 67
     8
 79
     3
170
     0
171
     0
290
     0
174
     0
 93
        5
 44
0.0
173
     0
291
     0
 45
0.0
1001
ACAD
1000
AcDbSavedByObjectVersion
1070
     0
  0
VISUALSTYLE
  5
E50
102
{ACAD_XDICTIONARY
360
15E3
102
}
102
{ACAD_REACTORS
330
99
102
}
330
99
100
AcDbVisualStyle
  2

 70
    26
 71
     2
 72
     2
 73
     1
 90
        2
 40
-0.6
 41
30.0
 62
     5
 63
     7
 74
     1
 91
       10
 64
     7
 65
   257
 75
     2
175
     1
 42
1.0
 92
        8
 66
   257
 43
1.0
 76
     1
 77
     6
 78
     2
 67
     7
 79
     3
170
     0
171
     0
290
     0
174
     0
 93
        5
 44
0.0
173
     0
291
     0
 45
0.0
1001
ACAD
1000
AcDbSavedByObjectVersion
1070
     0
  0
VISUALSTYLE
  5
E4D
102
{ACAD_XDICTIONARY
360
15DD
102
}
102
{ACAD_REACTORS
330
99
102
}
330
99
100
AcDbVisualStyle
  2

 70
    23
 71
     2
 72
     2
 73
     3
 90
        0
 40
-0.6
 41
-30.0
 62
     5
 63
     7
 74
     2
 91
        2
 64
     7
 65
     7
 75
     1
175
     1
 42
40.0
 92
        8
 66
     7
 43
1.0
 76
     1
 77
     6
 78
     2
 67
     7
 79
     3
170
     0
171
     0
290
     0
174
     0
 93
        1
 44
0.0
173
     0
291
     0
 45
0.0
1001
ACAD
1000
AcDbSavedByObjectVersion
1070
     0
  0
VISUALSTYLE
  5
E4E
102
{ACAD_XDICTIONARY
360
15DF
102
}
102
{ACAD_REACTORS
330
99
102
}
330
99
100
AcDbVisualStyle
  2

 70
    24
 71
     1
 72
     2
 73
     2
 90
        0
 40
-0.6
 41
-30.0
 62
     5
 63
     7
 74
     2
 91
        2
 64
     7
 65
     7
 75
     1
175
     1
 42
40.0
 92
       11
 66
     7
 43
1.0
 76
     1
 77
     6
 78
     2
 67
     7
 79
     6
170
     0
171
     0
290
     0
174
     0
 93
        1
 44
0.0
173
     0
291
     0
 45
0.0
1001
ACAD
1000
AcDbSavedByObjectVersion
1070
     0
  0
VISUALSTYLE
  5
A6
102
{ACAD_XDICTIONARY
360
15D1
102
}
102
{ACAD_REACTORS
330
99
102
}
330
99
100
AcDbVisualStyle
  2

 70
    13
 71
     2
 72
     2
 73
     1
 90
        0
 40
-0.6
 41
-30.0
 62
     5
 63
     7
 74
     1
 91
        4
 64
     7
 65
   257
 75
     1
175
     1
 42
1.0
 92
       12
 66
     7
 43
1.0
 76
     1
 77
     6
 78
     2
 67
     7
 79
     5
170
     0
171
     0
290
     0
174
     0
 93
        1
 44
0.0
173
     0
291
     1
 45
0.0
1001
ACAD
1000
AcDbSavedByObjectVersion
1070
     0
  0
VISUALSTYLE
  5
E4B
102
{ACAD_XDICTIONARY
360
15D9
102
}
102
{ACAD_REACTORS
330
99
102
}
330
99
100
AcDbVisualStyle
  2

 70
     5
 71
     0
 72
     2
 73
     0
 90
        0
 40
-0.6
 41
-30.0
 62
     5
 63
     7
 74
     1
 91
        4
 64
     7
 65
   257
 75
     1
175
     1
 42
1.0
 92
        0
 66
   257
 43
1.0
 76
     1
 77
     6
 78
     2
 67
     7
 79
     3
170
     0
171
     0
290
     0
174
     0
 93
        1
 44
0.0
173
     0
291
     0
 45
0.0
1001
ACAD
1000
AcDbSavedByObjectVersion
1070
     0
  0
VISUALSTYLE
  5
E4F
102
{ACAD_XDICTIONARY
360
15E1
102
}
102
{ACAD_REACTORS
330
99
102
}
330
99
100
AcDbVisualStyle
  2

 70
    25
 71
     2
 72
     2
 73
     1
 90
        1
 40
0.5
 41
-30.0
 62
     5
 63
     7
 74
     1
 91
        0
 64
     7
 65
   257
 75
     1
175
     1
 42
1.0
 92
        8
 66
     7
 43
1.0
 76
     1
 77
     6
 78
     2
 67
     7
 79
     3
170
     0
171
     0
290
     0
174
     0
 93
       13
 44
0.0
173
     0
291
     0
 45
0.0
1001
ACAD
1000
AcDbSavedByObjectVersion
1070
     0
  0
DICTIONARYVAR
  5
F0
102
{ACAD_REACTORS
330
66
102
}
330
66
100
DictionaryVariables
280
     0
  1
1:1
  0
DICTIONARYVAR
  5
EF
102
{ACAD_REACTORS
330
66
102
}
330
66
100
DictionaryVariables
280
     0
  1
STANDARD
  0
DICTIONARYVAR
  5
89
102
{ACAD_REACTORS
330
66
102
}
330
66
100
DictionaryVariables
280
     0
  1
STANDARD
  0
DICTIONARYVAR
  5
11EC
102
{ACAD_REACTORS
330
66
102
}
330
66
100
DictionaryVariables
280
     0
  1
Imperial24
  0
DICTIONARYVAR
  5
11ED
102
{ACAD_REACTORS
330
66
102
}
330
66
100
DictionaryVariables
280
     0
  1
Imperial24
  0
DICTIONARYVAR
  5
67
102
{ACAD_REACTORS
330
66
102
}
330
66
100
DictionaryVariables
280
     0
  1
2
  0
DICTIONARYVAR
  5
6B
102
{ACAD_REACTORS
330
66
102
}
330
66
100
DictionaryVariables
280
     0
  1
1
  0
DICTIONARYVAR
  5
247
102
{ACAD_REACTORS
330
66
102
}
330
66
100
DictionaryVariables
280
     0
  1
0
  0
DICTIONARYVAR
  5
245
102
{ACAD_REACTORS
330
66
102
}
330
66
100
DictionaryVariables
280
     0
  1
2
  0
DICTIONARYVAR
  5
244
102
{ACAD_REACTORS
330
66
102
}
330
66
100
DictionaryVariables
280
     0
  1
1
  0
DICTIONARYVAR
  5
246
102
{ACAD_REACTORS
330
66
102
}
330
66
100
DictionaryVariables
280
     0
  1
127
  0
DICTIONARYVAR
  5
15AE
102
{ACAD_REACTORS
330
66
102
}
330
66
100
DictionaryVariables
280
     0
  1
2
  0
DICTIONARY
  5
15EF
330
E58
100
AcDbDictionary
280
     1
281
     1
  3
ACAD_XREC_ROUNDTRIP
360
15F0
  0
DICTIONARY
  5
15F3
330
E62
100
AcDbDictionary
280
     1
281
     1
  3
ACAD_XREC_ROUNDTRIP
360
15F4
  0
DICTIONARY
  5
15B4
330
59
100
AcDbDictionary
280
     1
281
     1
  3
ACAD_XREC_ROUNDTRIP
360
15B5
  0
DICTIONARY
  5
15B6
330
5E
100
AcDbDictionary
280
     1
281
     1
  3
ACAD_XREC_ROUNDTRIP
360
15B7
  0
DICTIONARY
  5
15B2
330
22
100
AcDbDictionary
280
     1
281
     1
  3
ACAD_XREC_ROUNDTRIP
360
15B3
  0
DICTIONARY
  5
944
330
97
100
AcDbDictionary
280
     1
281
     1
  3
ACAD_XREC_ROUNDTRIP
360
945
  0
DICTIONARY
  5
942
330
96
100
AcDbDictionary
280
     1
281
     1
  3
ACAD_XREC_ROUNDTRIP
360
943
  0
DICTIONARY
  5
110
330
98
100
AcDbDictionary
280
     1
281
     1
  3
ACAD_XREC_ROUNDTRIP
360
946
  3
BUMPTILE
360
112
  3
DIFFUSETILE
360
111
  3
OPACITYTILE
360
113
  3
REFLECTIONTILE
360
114
  0
DICTIONARY
  5
15ED
330
E56
100
AcDbDictionary
280
     1
281
     1
  3
ACAD_XREC_ROUNDTRIP
360
15EE
  0
DICTIONARY
  5
15F1
330
E61
100
AcDbDictionary
280
     1
281
     1
  3
ACAD_XREC_ROUNDTRIP
360
15F2
  0
DICTIONARY
  5
104
330
87
100
AcDbDictionary
280
     1
281
     1
  3
ACAD_ROUNDTRIP_2008_TABLESTYLE_CELLSTYLEMAP
360
15AF
  3
ACAD_XREC_ROUNDTRIP
360
15B8
  0
DICTIONARY
  5
15C3
330
9F
100
AcDbDictionary
280
     1
281
     1
  3
ACAD_XREC_ROUNDTRIP
360
15C4
  0
DICTIONARY
  5
15C7
330
A1
100
AcDbDictionary
280
     1
281
     1
  3
ACAD_XREC_ROUNDTRIP
360
15C8
  0
DICTIONARY
  5
15C5
330
A0
100
AcDbDictionary
280
     1
281
     1
  3
ACAD_XREC_ROUNDTRIP
360
15C6
  0
DICTIONARY
  5
15C1
330
9E
100
AcDbDictionary
280
     1
281
     1
  3
ACAD_XREC_ROUNDTRIP
360
15C2
  0
DICTIONARY
  5
15CF
330
A5
100
AcDbDictionary
280
     1
281
     1
  3
ACAD_XREC_ROUNDTRIP
360
15D0
  0
DICTIONARY
  5
15D7
330
A9
100
AcDbDictionary
280
     1
281
     1
  3
ACAD_XREC_ROUNDTRIP
360
15D8
  0
DICTIONARY
  5
15C9
330
A2
100
AcDbDictionary
280
     1
281
     1
  3
ACAD_XREC_ROUNDTRIP
360
15CA
  0
DICTIONARY
  5
15CD
330
A4
100
AcDbDictionary
280
     1
281
     1
  3
ACAD_XREC_ROUNDTRIP
360
15CE
  0
DICTIONARY
  5
15EB
330
E54
100
AcDbDictionary
280
     1
281
     1
  3
ACAD_XREC_ROUNDTRIP
360
15EC
  0
DICTIONARY
  5
15D5
330
A8
100
AcDbDictionary
280
     1
281
     1
  3
ACAD_XREC_ROUNDTRIP
360
15D6
  0
DICTIONARY
  5
15B9
330
9A
100
AcDbDictionary
280
     1
281
     1
  3
ACAD_XREC_ROUNDTRIP
360
15BA
  0
DICTIONARY
  5
15BB
330
9B
100
AcDbDictionary
280
     1
281
     1
  3
ACAD_XREC_ROUNDTRIP
360
15BC
  0
DICTIONARY
  5
15BD
330
9C
100
AcDbDictionary
280
     1
281
     1
  3
ACAD_XREC_ROUNDTRIP
360
15BE
  0
DICTIONARY
  5
15BF
330
9D
100
AcDbDictionary
280
     1
281
     1
  3
ACAD_XREC_ROUNDTRIP
360
15C0
  0
DICTIONARY
  5
15DB
330
E4C
100
AcDbDictionary
280
     1
281
     1
  3
ACAD_XREC_ROUNDTRIP
360
15DC
  0
DICTIONARY
  5
15E7
330
E52
100
AcDbDictionary
280
     1
281
     1
  3
ACAD_XREC_ROUNDTRIP
360
15E8
  0
DICTIONARY
  5
15D3
330
A7
100
AcDbDictionary
280
     1
281
     1
  3
ACAD_XREC_ROUNDTRIP
360
15D4
  0
DICTIONARY
  5
15E9
330
E53
100
AcDbDictionary
280
     1
281
     1
  3
ACAD_XREC_ROUNDTRIP
360
15EA
  0
DICTIONARY
  5
15CB
330
A3
100
AcDbDictionary
280
     1
281
     1
  3
ACAD_XREC_ROUNDTRIP
360
15CC
  0
DICTIONARY
  5
15E5
330
E51
100
AcDbDictionary
280
     1
281
     1
  3
ACAD_XREC_ROUNDTRIP
360
15E6
  0
DICTIONARY
  5
15E3
330
E50
100
AcDbDictionary
280
     1
281
     1
  3
ACAD_XREC_ROUNDTRIP
360
15E4
  0
DICTIONARY
  5
15DD
330
E4D
100
AcDbDictionary
280
     1
281
     1
  3
ACAD_XREC_ROUNDTRIP
360
15DE
  0
DICTIONARY
  5
15DF
330
E4E
100
AcDbDictionary
280
     1
281
     1
  3
ACAD_XREC_ROUNDTRIP
360
15E0
  0
DICTIONARY
  5
15D1
330
A6
100
AcDbDictionary
280
     1
281
     1
  3
ACAD_XREC_ROUNDTRIP
360
15D2
  0
DICTIONARY
  5
15D9
330
E4B
100
AcDbDictionary
280
     1
281
     1
  3
ACAD_XREC_ROUNDTRIP
360
15DA
  0
DICTIONARY
  5
15E1
330
E4F
100
AcDbDictionary
280
     1
281
     1
  3
ACAD_XREC_ROUNDTRIP
360
15E2
  0
XRECORD
  5
15F0
102
{ACAD_REACTORS
330
15EF
102
}
330
15EF
100
AcDbXrecord
280
     1
102
DISPLAYNAME
  1
Imperial24
102
FLAGS
 90
        0
  0
XRECORD
  5
15F4
102
{ACAD_REACTORS
330
15F3
102
}
330
15F3
100
AcDbXrecord
280
     1
102
DISPLAYNAME
  1
Metric50
102
FLAGS
 90
        0
  0
XRECORD
  5
15B5
102
{ACAD_REACTORS
330
15B4
102
}
330
15B4
100
AcDbXrecord
280
     1
102
SHADEPLOT
 70
     0
102
SHADEPLOTRESLEVEL
 70
     2
102
SHADEPLOTCUSTOMDPI
 70
   300
  0
XRECORD
  5
15B7
102
{ACAD_REACTORS
330
15B6
102
}
330
15B6
100
AcDbXrecord
280
     1
102
SHADEPLOT
 70
     0
102
SHADEPLOTRESLEVEL
 70
     2
102
SHADEPLOTCUSTOMDPI
 70
   300
  0
XRECORD
  5
15B3
102
{ACAD_REACTORS
330
15B2
102
}
330
15B2
100
AcDbXrecord
280
     1
102
SHADEPLOT
 70
     0
102
SHADEPLOTRESLEVEL
 70
     2
102
SHADEPLOTCUSTOMDPI
 70
   300
  0
XRECORD
  5
945
102
{ACAD_REACTORS
330
944
102
}
330
944
100
AcDbXrecord
280
     1
102
MATERIAL
148
0.0
149
0.0
149
0.0
 93
        0
 94
      127
282
     0
 72
     1
 77
     1
171
     1
175
     1
179
     1
273
     0
  0
XRECORD
  5
943
102
{ACAD_REACTORS
330
942
102
}
330
942
100
AcDbXrecord
280
     1
102
MATERIAL
148
0.0
149
0.0
149
0.0
 93
        0
 94
      127
282
     0
 72
     1
 77
     1
171
     1
175
     1
179
     1
273
     0
  0
XRECORD
  5
946
102
{ACAD_REACTORS
330
110
102
}
330
110
100
AcDbXrecord
280
     1
102
MATERIAL
148
0.0
149
0.0
149
0.0
 93
        0
 94
      127
282
     0
 72
     1
 77
     1
171
     1
175
     1
179
     1
273
     0
  0
XRECORD
  5
112
102
{ACAD_REACTORS
330
110
102
}
330
110
100
AcDbXrecord
280
     1
270
     1
271
     1
  0
XRECORD
  5
111
102
{ACAD_REACTORS
330
110
102
}
330
110
100
AcDbXrecord
280
     1
270
     1
271
     1
  0
XRECORD
  5
113
102
{ACAD_REACTORS
330
110
102
}
330
110
100
AcDbXrecord
280
     1
270
     1
271
     1
  0
XRECORD
  5
114
102
{ACAD_REACTORS
330
110
102
}
330
110
100
AcDbXrecord
280
     1
270
     1
271
     1
  0
XRECORD
  5
15EE
102
{ACAD_REACTORS
330
15ED
102
}
330
15ED
100
AcDbXrecord
280
     1
102
DISPLAYNAME
  1
Imperial24
102
FLAGS
 90
        0
  0
XRECORD
  5
15F2
102
{ACAD_REACTORS
330
15F1
102
}
330
15F1
100
AcDbXrecord
280
     1
102
DISPLAYNAME
  1
Metric50
102
FLAGS
 90
        0
  0
CELLSTYLEMAP
  5
15AF
102
{ACAD_REACTORS
330
104
102
}
330
104
100
AcDbCellStyleMap
 90
        3
300
CELLSTYLE
  1
TABLEFORMAT_BEGIN
 90
        5
170
     1
 91
        0
 92
    32768
 62
   257
 93
        1
300
CONTENTFORMAT
  1
CONTENTFORMAT_BEGIN
 90
        0
 91
        0
 92
      512
 93
        0
300

 40
0.0
140
1.0
 94
        5
 62
     0
340
11
144
0.25
309
CONTENTFORMAT_END
171
     1
301
MARGIN
  1
CELLMARGIN_BEGIN
 40
0.06
 40
0.06
 40
0.06
 40
0.06
 40
0.18
 40
0.18
309
CELLMARGIN_END
 94
        6
 95
        1
302
GRIDFORMAT
  1
GRIDFORMAT_BEGIN
 90
        0
 91
        1
 62
     0
 92
       -2
340
0
 93
        0
 40
0.045
309
GRIDFORMAT_END
 95
        2
302
GRIDFORMAT
  1
GRIDFORMAT_BEGIN
 90
        0
 91
        1
 62
     0
 92
       -2
340
0
 93
        0
 40
0.045
309
GRIDFORMAT_END
 95
        4
302
GRIDFORMAT
  1
GRIDFORMAT_BEGIN
 90
        0
 91
        1
 62
     0
 92
       -2
340
0
 93
        0
 40
0.045
309
GRIDFORMAT_END
 95
        8
302
GRIDFORMAT
  1
GRIDFORMAT_BEGIN
 90
        0
 91
        1
 62
     0
 92
       -2
340
0
 93
        0
 40
0.045
309
GRIDFORMAT_END
 95
       16
302
GRIDFORMAT
  1
GRIDFORMAT_BEGIN
 90
        0
 91
        1
 62
     0
 92
       -2
340
0
 93
        0
 40
0.045
309
GRIDFORMAT_END
 95
       32
302
GRIDFORMAT
  1
GRIDFORMAT_BEGIN
 90
        0
 91
        1
 62
     0
 92
       -2
340
0
 93
        0
 40
0.045
309
GRIDFORMAT_END
309
TABLEFORMAT_END
  1
CELLSTYLE_BEGIN
 90
        1
 91
        1
300
_TITLE
309
CELLSTYLE_END
300
CELLSTYLE
  1
TABLEFORMAT_BEGIN
 90
        5
170
     1
 91
        0
 92
        0
 62
   257
 93
        1
300
CONTENTFORMAT
  1
CONTENTFORMAT_BEGIN
 90
        0
 91
        0
 92
      512
 93
        0
300

 40
0.0
140
1.0
 94
        5
 62
     0
340
11
144
0.18
309
CONTENTFORMAT_END
171
     1
301
MARGIN
  1
CELLMARGIN_BEGIN
 40
0.06
 40
0.06
 40
0.06
 40
0.06
 40
0.18
 40
0.18
309
CELLMARGIN_END
 94
        6
 95
        1
302
GRIDFORMAT
  1
GRIDFORMAT_BEGIN
 90
        0
 91
        1
 62
     0
 92
       -2
340
0
 93
        0
 40
0.045
309
GRIDFORMAT_END
 95
        2
302
GRIDFORMAT
  1
GRIDFORMAT_BEGIN
 90
        0
 91
        1
 62
     0
 92
       -2
340
0
 93
        0
 40
0.045
309
GRIDFORMAT_END
 95
        4
302
GRIDFORMAT
  1
GRIDFORMAT_BEGIN
 90
        0
 91
        1
 62
     0
 92
       -2
340
0
 93
        0
 40
0.045
309
GRIDFORMAT_END
 95
        8
302
GRIDFORMAT
  1
GRIDFORMAT_BEGIN
 90
        0
 91
        1
 62
     0
 92
       -2
340
0
 93
        0
 40
0.045
309
GRIDFORMAT_END
 95
       16
302
GRIDFORMAT
  1
GRIDFORMAT_BEGIN
 90
        0
 91
        1
 62
     0
 92
       -2
340
0
 93
        0
 40
0.045
309
GRIDFORMAT_END
 95
       32
302
GRIDFORMAT
  1
GRIDFORMAT_BEGIN
 90
        0
 91
        1
 62
     0
 92
       -2
340
0
 93
        0
 40
0.045
309
GRIDFORMAT_END
309
TABLEFORMAT_END
  1
CELLSTYLE_BEGIN
 90
        2
 91
        1
300
_HEADER
309
CELLSTYLE_END
300
CELLSTYLE
  1
TABLEFORMAT_BEGIN
 90
        5
170
     1
 91
        0
 92
        0
 62
   257
 93
        1
300
CONTENTFORMAT
  1
CONTENTFORMAT_BEGIN
 90
        0
 91
        0
 92
      512
 93
        0
300

 40
0.0
140
1.0
 94
        2
 62
     0
340
11
144
0.18
309
CONTENTFORMAT_END
171
     1
301
MARGIN
  1
CELLMARGIN_BEGIN
 40
0.06
 40
0.06
 40
0.06
 40
0.06
 40
0.18
 40
0.18
309
CELLMARGIN_END
 94
        6
 95
        1
302
GRIDFORMAT
  1
GRIDFORMAT_BEGIN
 90
        0
 91
        1
 62
     0
 92
       -2
340
0
 93
        0
 40
0.045
309
GRIDFORMAT_END
 95
        2
302
GRIDFORMAT
  1
GRIDFORMAT_BEGIN
 90
        0
 91
        1
 62
     0
 92
       -2
340
0
 93
        0
 40
0.045
309
GRIDFORMAT_END
 95
        4
302
GRIDFORMAT
  1
GRIDFORMAT_BEGIN
 90
        0
 91
        1
 62
     0
 92
       -2
340
0
 93
        0
 40
0.045
309
GRIDFORMAT_END
 95
        8
302
GRIDFORMAT
  1
GRIDFORMAT_BEGIN
 90
        0
 91
        1
 62
     0
 92
       -2
340
0
 93
        0
 40
0.045
309
GRIDFORMAT_END
 95
       16
302
GRIDFORMAT
  1
GRIDFORMAT_BEGIN
 90
        0
 91
        1
 62
     0
 92
       -2
340
0
 93
        0
 40
0.045
309
GRIDFORMAT_END
 95
       32
302
GRIDFORMAT
  1
GRIDFORMAT_BEGIN
 90
        0
 91
        1
 62
     0
 92
       -2
340
0
 93
        0
 40
0.045
309
GRIDFORMAT_END
309
TABLEFORMAT_END
  1
CELLSTYLE_BEGIN
 90
        3
 91
        2
300
_DATA
309
CELLSTYLE_END
  0
XRECORD
  5
15B8
102
{ACAD_REACTORS
330
104
102
}
330
104
100
AcDbXrecord
280
     1
102
ACAD_ROUNDTRIP_PRE2007_TABLESTYLE
 90
      512
 91
        0
  1

 92
      512
 93
        0
  2

 94
      512
 95
        0
  3

  0
XRECORD
  5
15C4
102
{ACAD_REACTORS
330
15C3
102
}
330
15C3
100
AcDbXrecord
280
     1
102
RTVSPost2010Prop28
280
     1
102
RTVSPost2010PropOp28
 70
     1
102
RTVSPost2010Prop29
280
     1
102
RTVSPost2010PropOp29
 70
     1
102
RTVSPost2010Prop30
280
     0
102
RTVSPost2010PropOp30
 70
     1
102
RTVSPost2010Prop31
280
     0
102
RTVSPost2010PropOp31
 70
     1
102
RTVSPost2010Prop32
280
     0
102
RTVSPost2010PropOp32
 70
     1
102
RTVSPost2010Prop33
280
     0
102
RTVSPost2010PropOp33
 70
     1
102
RTVSPost2010Prop34
280
     0
102
RTVSPost2010PropOp34
 70
     1
102
RTVSPost2010Prop35
280
     0
102
RTVSPost2010PropOp35
 70
     1
102
RTVSPost2010Prop36
280
     0
102
RTVSPost2010PropOp36
 70
     1
102
RTVSPost2010Prop37
 90
       50
102
RTVSPost2010PropOp37
 70
     1
102
RTVSPost2010Prop38
140
0.0
102
RTVSPost2010PropOp38
 70
     1
102
RTVSPost2010Prop39
140
1.0
102
RTVSPost2010PropOp39
 70
     1
102
RTVSPost2010Prop40
 90
        0
102
RTVSPost2010PropOp40
 70
     1
102
RTVSPost2010Prop41ColorIndex
 90
       18
102
RTVSPost2010Prop41ColorRGB
 90
        0
102
RTVSPost2010PropOp41
 70
     1
102
RTVSPost2010Prop42
 90
       50
102
RTVSPost2010PropOp42
 70
     1
102
RTVSPost2010Prop43
 90
        3
102
RTVSPost2010PropOp43
 70
     1
102
RTVSPost2010Prop44ColorIndex
 90
        5
102
RTVSPost2010Prop44ColorRGB
 90
      255
102
RTVSPost2010PropOp44
 70
     1
102
RTVSPost2010Prop45
280
     0
102
RTVSPost2010PropOp45
 70
     1
102
RTVSPost2010Prop46
 90
       50
102
RTVSPost2010PropOp46
 70
     1
102
RTVSPost2010Prop47
 90
       50
102
RTVSPost2010PropOp47
 70
     1
102
RTVSPost2010Prop48
 90
       50
102
RTVSPost2010PropOp48
 70
     1
102
RTVSPost2010Prop49
280
     0
102
RTVSPost2010PropOp49
 70
     1
102
RTVSPost2010Prop50
 90
       50
102
RTVSPost2010PropOp50
 70
     1
102
RTVSPost2010Prop51ColorIndex
 90
      256
102
RTVSPost2010Prop51ColorRGB
 90
-16777216
102
RTVSPost2010PropOp51
 70
     0
102
RTVSPost2010Prop52
140
1.0
102
RTVSPost2010PropOp52
 70
     0
102
RTVSPost2010Prop53
 90
        2
102
RTVSPost2010PropOp53
 70
     1
102
RTVSPost2010Prop54
  1
strokes_ogs.tif
102
RTVSPost2010PropOp54
 70
     1
102
RTVSPost2010Prop55
280
     0
102
RTVSPost2010PropOp55
 70
     1
102
RTVSPost2010Prop56
140
1.0
102
RTVSPost2010PropOp56
 70
     1
102
RTVSPost2010Prop57
140
1.0
102
RTVSPost2010PropOp57
 70
     1
102
RTVSPropertyOp0
 70
     1
102
RTVSPropertyOp1
 70
     1
102
RTVSPropertyOp2
 70
     1
102
RTVSPropertyOp3
 70
     1
102
RTVSPropertyOp4
 70
     1
102
RTVSPropertyOp5
 70
     1
102
RTVSPropertyOp6
 70
     1
102
RTVSPropertyOp7
 70
     1
102
RTVSPropertyOp8
 70
     1
102
RTVSPropertyOp9
 70
     1
102
RTVSPropertyOp10
 70
     1
102
RTVSPropertyOp11
 70
     1
102
RTVSPropertyOp12
 70
     1
102
RTVSPropertyOp13
 70
     1
102
RTVSPropertyOp14
 70
     1
102
RTVSPropertyOp15
 70
     1
102
RTVSPropertyOp16
 70
     1
102
RTVSPropertyOp17
 70
     1
102
RTVSPropertyOp18
 70
     1
102
RTVSPropertyOp19
 70
     1
102
RTVSPropertyOp20
 70
     1
102
RTVSPropertyOp21
 70
     1
102
RTVSPropertyOp22
 70
     1
102
RTVSPropertyOp23
 70
     1
102
RTVSPropertyOp24
 70
     1
102
RTVSPropertyOp25
 70
     1
102
RTVSPropertyOp26
 70
     1
102
RTVSPropertyOp27
 70
     1
102
RTVSPropertyOp28
 70
     1
102
RTVSPropertyOp29
 70
     1
102
RTVSPropertyOp30
 70
     1
102
RTVSPropertyOp31
 70
     1
102
RTVSPropertyOp32
 70
     1
102
RTVSPropertyOp33
 70
     1
102
RTVSPropertyOp34
 70
     1
102
RTVSPropertyOp35
 70
     1
102
RTVSPropertyOp36
 70
     1
102
RTVSPropertyOp37
 70
     1
102
RTVSPropertyOp38
 70
     1
102
RTVSPropertyOp39
 70
     1
102
RTVSPropertyOp40
 70
     1
102
RTVSPropertyOp41
 70
     1
102
RTVSPropertyOp42
 70
     1
102
RTVSPropertyOp43
 70
     1
102
RTVSPropertyOp44
 70
     1
102
RTVSPropertyOp45
 70
     1
102
RTVSPropertyOp46
 70
     1
102
RTVSPropertyOp47
 70
     1
102
RTVSPropertyOp48
 70
     1
102
RTVSPropertyOp49
 70
     1
102
RTVSPropertyOp50
 70
     1
102
RTVSPropertyOp51
 70
     0
102
RTVSPropertyOp52
 70
     0
102
RTVSPropertyOp53
 70
     1
102
RTVSPropertyOp54
 70
     1
102
RTVSPropertyOp55
 70
     1
102
RTVSPropertyOp56
 70
     1
102
RTVSPropertyOp57
 70
     1
102
RTVSPropertyOp58
 70
     1
102
RTVSPropertyOp59
 70
     1
102
RTVSPropertyOp60
 70
     1
102
RTVSPropertyOp61
 70
     1
102
RTVSPropertyOp62
 70
     1
  0
XRECORD
  5
15C8
102
{ACAD_REACTORS
330
15C7
102
}
330
15C7
100
AcDbXrecord
280
     1
102
RTVSPost2010Prop28
280
     0
102
RTVSPost2010PropOp28
 70
     1
102
RTVSPost2010Prop29
280
     1
102
RTVSPost2010PropOp29
 70
     1
102
RTVSPost2010Prop30
280
     1
102
RTVSPost2010PropOp30
 70
     1
102
RTVSPost2010Prop31
280
     0
102
RTVSPost2010PropOp31
 70
     1
102
RTVSPost2010Prop32
280
     0
102
RTVSPost2010PropOp32
 70
     1
102
RTVSPost2010Prop33
280
     0
102
RTVSPost2010PropOp33
 70
     1
102
RTVSPost2010Prop34
280
     0
102
RTVSPost2010PropOp34
 70
     1
102
RTVSPost2010Prop35
280
     0
102
RTVSPost2010PropOp35
 70
     1
102
RTVSPost2010Prop36
280
     0
102
RTVSPost2010PropOp36
 70
     1
102
RTVSPost2010Prop37
 90
       50
102
RTVSPost2010PropOp37
 70
     1
102
RTVSPost2010Prop38
140
0.0
102
RTVSPost2010PropOp38
 70
     1
102
RTVSPost2010Prop39
140
1.0
102
RTVSPost2010PropOp39
 70
     1
102
RTVSPost2010Prop40
 90
        0
102
RTVSPost2010PropOp40
 70
     1
102
RTVSPost2010Prop41ColorIndex
 90
       18
102
RTVSPost2010Prop41ColorRGB
 90
        0
102
RTVSPost2010PropOp41
 70
     1
102
RTVSPost2010Prop42
 90
       50
102
RTVSPost2010PropOp42
 70
     1
102
RTVSPost2010Prop43
 90
        3
102
RTVSPost2010PropOp43
 70
     1
102
RTVSPost2010Prop44ColorIndex
 90
        5
102
RTVSPost2010Prop44ColorRGB
 90
      255
102
RTVSPost2010PropOp44
 70
     1
102
RTVSPost2010Prop45
280
     0
102
RTVSPost2010PropOp45
 70
     1
102
RTVSPost2010Prop46
 90
       50
102
RTVSPost2010PropOp46
 70
     1
102
RTVSPost2010Prop47
 90
       50
102
RTVSPost2010PropOp47
 70
     1
102
RTVSPost2010Prop48
 90
       50
102
RTVSPost2010PropOp48
 70
     1
102
RTVSPost2010Prop49
280
     0
102
RTVSPost2010PropOp49
 70
     1
102
RTVSPost2010Prop50
 90
       50
102
RTVSPost2010PropOp50
 70
     1
102
RTVSPost2010Prop51ColorIndex
 90
      256
102
RTVSPost2010Prop51ColorRGB
 90
-16777216
102
RTVSPost2010PropOp51
 70
     0
102
RTVSPost2010Prop52
140
1.0
102
RTVSPost2010PropOp52
 70
     0
102
RTVSPost2010Prop53
 90
        2
102
RTVSPost2010PropOp53
 70
     1
102
RTVSPost2010Prop54
  1
strokes_ogs.tif
102
RTVSPost2010PropOp54
 70
     1
102
RTVSPost2010Prop55
280
     0
102
RTVSPost2010PropOp55
 70
     1
102
RTVSPost2010Prop56
140
1.0
102
RTVSPost2010PropOp56
 70
     1
102
RTVSPost2010Prop57
140
1.0
102
RTVSPost2010PropOp57
 70
     1
102
RTVSPropertyOp0
 70
     1
102
RTVSPropertyOp1
 70
     1
102
RTVSPropertyOp2
 70
     1
102
RTVSPropertyOp3
 70
     1
102
RTVSPropertyOp4
 70
     1
102
RTVSPropertyOp5
 70
     1
102
RTVSPropertyOp6
 70
     1
102
RTVSPropertyOp7
 70
     1
102
RTVSPropertyOp8
 70
     1
102
RTVSPropertyOp9
 70
     1
102
RTVSPropertyOp10
 70
     1
102
RTVSPropertyOp11
 70
     1
102
RTVSPropertyOp12
 70
     1
102
RTVSPropertyOp13
 70
     1
102
RTVSPropertyOp14
 70
     1
102
RTVSPropertyOp15
 70
     1
102
RTVSPropertyOp16
 70
     1
102
RTVSPropertyOp17
 70
     1
102
RTVSPropertyOp18
 70
     1
102
RTVSPropertyOp19
 70
     1
102
RTVSPropertyOp20
 70
     1
102
RTVSPropertyOp21
 70
     1
102
RTVSPropertyOp22
 70
     1
102
RTVSPropertyOp23
 70
     1
102
RTVSPropertyOp24
 70
     1
102
RTVSPropertyOp25
 70
     1
102
RTVSPropertyOp26
 70
     1
102
RTVSPropertyOp27
 70
     1
102
RTVSPropertyOp28
 70
     1
102
RTVSPropertyOp29
 70
     1
102
RTVSPropertyOp30
 70
     1
102
RTVSPropertyOp31
 70
     1
102
RTVSPropertyOp32
 70
     1
102
RTVSPropertyOp33
 70
     1
102
RTVSPropertyOp34
 70
     1
102
RTVSPropertyOp35
 70
     1
102
RTVSPropertyOp36
 70
     1
102
RTVSPropertyOp37
 70
     1
102
RTVSPropertyOp38
 70
     1
102
RTVSPropertyOp39
 70
     1
102
RTVSPropertyOp40
 70
     1
102
RTVSPropertyOp41
 70
     1
102
RTVSPropertyOp42
 70
     1
102
RTVSPropertyOp43
 70
     1
102
RTVSPropertyOp44
 70
     1
102
RTVSPropertyOp45
 70
     1
102
RTVSPropertyOp46
 70
     1
102
RTVSPropertyOp47
 70
     1
102
RTVSPropertyOp48
 70
     1
102
RTVSPropertyOp49
 70
     1
102
RTVSPropertyOp50
 70
     1
102
RTVSPropertyOp51
 70
     0
102
RTVSPropertyOp52
 70
     0
102
RTVSPropertyOp53
 70
     1
102
RTVSPropertyOp54
 70
     1
102
RTVSPropertyOp55
 70
     1
102
RTVSPropertyOp56
 70
     1
102
RTVSPropertyOp57
 70
     1
102
RTVSPropertyOp58
 70
     1
102
RTVSPropertyOp59
 70
     1
102
RTVSPropertyOp60
 70
     1
102
RTVSPropertyOp61
 70
     1
102
RTVSPropertyOp62
 70
     1
  0
XRECORD
  5
15C6
102
{ACAD_REACTORS
330
15C5
102
}
330
15C5
100
AcDbXrecord
280
     1
102
RTVSPost2010Prop28
280
     0
102
RTVSPost2010PropOp28
 70
     1
102
RTVSPost2010Prop29
280
     1
102
RTVSPost2010PropOp29
 70
     1
102
RTVSPost2010Prop30
280
     1
102
RTVSPost2010PropOp30
 70
     1
102
RTVSPost2010Prop31
280
     0
102
RTVSPost2010PropOp31
 70
     1
102
RTVSPost2010Prop32
280
     0
102
RTVSPost2010PropOp32
 70
     1
102
RTVSPost2010Prop33
280
     0
102
RTVSPost2010PropOp33
 70
     1
102
RTVSPost2010Prop34
280
     0
102
RTVSPost2010PropOp34
 70
     1
102
RTVSPost2010Prop35
280
     0
102
RTVSPost2010PropOp35
 70
     1
102
RTVSPost2010Prop36
280
     0
102
RTVSPost2010PropOp36
 70
     1
102
RTVSPost2010Prop37
 90
       50
102
RTVSPost2010PropOp37
 70
     1
102
RTVSPost2010Prop38
140
0.0
102
RTVSPost2010PropOp38
 70
     1
102
RTVSPost2010Prop39
140
1.0
102
RTVSPost2010PropOp39
 70
     1
102
RTVSPost2010Prop40
 90
        0
102
RTVSPost2010PropOp40
 70
     1
102
RTVSPost2010Prop41ColorIndex
 90
       18
102
RTVSPost2010Prop41ColorRGB
 90
        0
102
RTVSPost2010PropOp41
 70
     1
102
RTVSPost2010Prop42
 90
       50
102
RTVSPost2010PropOp42
 70
     1
102
RTVSPost2010Prop43
 90
        3
102
RTVSPost2010PropOp43
 70
     1
102
RTVSPost2010Prop44ColorIndex
 90
        5
102
RTVSPost2010Prop44ColorRGB
 90
      255
102
RTVSPost2010PropOp44
 70
     1
102
RTVSPost2010Prop45
280
     0
102
RTVSPost2010PropOp45
 70
     1
102
RTVSPost2010Prop46
 90
       50
102
RTVSPost2010PropOp46
 70
     1
102
RTVSPost2010Prop47
 90
       50
102
RTVSPost2010PropOp47
 70
     1
102
RTVSPost2010Prop48
 90
       50
102
RTVSPost2010PropOp48
 70
     1
102
RTVSPost2010Prop49
280
     0
102
RTVSPost2010PropOp49
 70
     1
102
RTVSPost2010Prop50
 90
       50
102
RTVSPost2010PropOp50
 70
     1
102
RTVSPost2010Prop51ColorIndex
 90
      256
102
RTVSPost2010Prop51ColorRGB
 90
-16777216
102
RTVSPost2010PropOp51
 70
     0
102
RTVSPost2010Prop52
140
1.0
102
RTVSPost2010PropOp52
 70
     0
102
RTVSPost2010Prop53
 90
        2
102
RTVSPost2010PropOp53
 70
     1
102
RTVSPost2010Prop54
  1
strokes_ogs.tif
102
RTVSPost2010PropOp54
 70
     1
102
RTVSPost2010Prop55
280
     0
102
RTVSPost2010PropOp55
 70
     1
102
RTVSPost2010Prop56
140
1.0
102
RTVSPost2010PropOp56
 70
     1
102
RTVSPost2010Prop57
140
1.0
102
RTVSPost2010PropOp57
 70
     1
102
RTVSPropertyOp0
 70
     1
102
RTVSPropertyOp1
 70
     1
102
RTVSPropertyOp2
 70
     1
102
RTVSPropertyOp3
 70
     1
102
RTVSPropertyOp4
 70
     1
102
RTVSPropertyOp5
 70
     1
102
RTVSPropertyOp6
 70
     1
102
RTVSPropertyOp7
 70
     1
102
RTVSPropertyOp8
 70
     1
102
RTVSPropertyOp9
 70
     1
102
RTVSPropertyOp10
 70
     1
102
RTVSPropertyOp11
 70
     1
102
RTVSPropertyOp12
 70
     1
102
RTVSPropertyOp13
 70
     1
102
RTVSPropertyOp14
 70
     1
102
RTVSPropertyOp15
 70
     1
102
RTVSPropertyOp16
 70
     1
102
RTVSPropertyOp17
 70
     1
102
RTVSPropertyOp18
 70
     1
102
RTVSPropertyOp19
 70
     1
102
RTVSPropertyOp20
 70
     1
102
RTVSPropertyOp21
 70
     1
102
RTVSPropertyOp22
 70
     1
102
RTVSPropertyOp23
 70
     1
102
RTVSPropertyOp24
 70
     1
102
RTVSPropertyOp25
 70
     1
102
RTVSPropertyOp26
 70
     1
102
RTVSPropertyOp27
 70
     1
102
RTVSPropertyOp28
 70
     1
102
RTVSPropertyOp29
 70
     1
102
RTVSPropertyOp30
 70
     1
102
RTVSPropertyOp31
 70
     1
102
RTVSPropertyOp32
 70
     1
102
RTVSPropertyOp33
 70
     1
102
RTVSPropertyOp34
 70
     1
102
RTVSPropertyOp35
 70
     1
102
RTVSPropertyOp36
 70
     1
102
RTVSPropertyOp37
 70
     1
102
RTVSPropertyOp38
 70
     1
102
RTVSPropertyOp39
 70
     1
102
RTVSPropertyOp40
 70
     1
102
RTVSPropertyOp41
 70
     1
102
RTVSPropertyOp42
 70
     1
102
RTVSPropertyOp43
 70
     1
102
RTVSPropertyOp44
 70
     1
102
RTVSPropertyOp45
 70
     1
102
RTVSPropertyOp46
 70
     1
102
RTVSPropertyOp47
 70
     1
102
RTVSPropertyOp48
 70
     1
102
RTVSPropertyOp49
 70
     1
102
RTVSPropertyOp50
 70
     1
102
RTVSPropertyOp51
 70
     0
102
RTVSPropertyOp52
 70
     0
102
RTVSPropertyOp53
 70
     1
102
RTVSPropertyOp54
 70
     1
102
RTVSPropertyOp55
 70
     1
102
RTVSPropertyOp56
 70
     1
102
RTVSPropertyOp57
 70
     1
102
RTVSPropertyOp58
 70
     1
102
RTVSPropertyOp59
 70
     1
102
RTVSPropertyOp60
 70
     1
102
RTVSPropertyOp61
 70
     1
102
RTVSPropertyOp62
 70
     1
  0
XRECORD
  5
15C2
102
{ACAD_REACTORS
330
15C1
102
}
330
15C1
100
AcDbXrecord
280
     1
102
RTVSPost2010Prop28
280
     0
102
RTVSPost2010PropOp28
 70
     1
102
RTVSPost2010Prop29
280
     1
102
RTVSPost2010PropOp29
 70
     1
102
RTVSPost2010Prop30
280
     1
102
RTVSPost2010PropOp30
 70
     1
102
RTVSPost2010Prop31
280
     0
102
RTVSPost2010PropOp31
 70
     1
102
RTVSPost2010Prop32
280
     0
102
RTVSPost2010PropOp32
 70
     1
102
RTVSPost2010Prop33
280
     0
102
RTVSPost2010PropOp33
 70
     1
102
RTVSPost2010Prop34
280
     0
102
RTVSPost2010PropOp34
 70
     1
102
RTVSPost2010Prop35
280
     0
102
RTVSPost2010PropOp35
 70
     1
102
RTVSPost2010Prop36
280
     0
102
RTVSPost2010PropOp36
 70
     1
102
RTVSPost2010Prop37
 90
       50
102
RTVSPost2010PropOp37
 70
     1
102
RTVSPost2010Prop38
140
0.0
102
RTVSPost2010PropOp38
 70
     1
102
RTVSPost2010Prop39
140
1.0
102
RTVSPost2010PropOp39
 70
     1
102
RTVSPost2010Prop40
 90
        0
102
RTVSPost2010PropOp40
 70
     1
102
RTVSPost2010Prop41ColorIndex
 90
       18
102
RTVSPost2010Prop41ColorRGB
 90
        0
102
RTVSPost2010PropOp41
 70
     1
102
RTVSPost2010Prop42
 90
       50
102
RTVSPost2010PropOp42
 70
     1
102
RTVSPost2010Prop43
 90
        3
102
RTVSPost2010PropOp43
 70
     1
102
RTVSPost2010Prop44ColorIndex
 90
        5
102
RTVSPost2010Prop44ColorRGB
 90
      255
102
RTVSPost2010PropOp44
 70
     1
102
RTVSPost2010Prop45
280
     0
102
RTVSPost2010PropOp45
 70
     1
102
RTVSPost2010Prop46
 90
       50
102
RTVSPost2010PropOp46
 70
     1
102
RTVSPost2010Prop47
 90
       50
102
RTVSPost2010PropOp47
 70
     1
102
RTVSPost2010Prop48
 90
       50
102
RTVSPost2010PropOp48
 70
     1
102
RTVSPost2010Prop49
280
     0
102
RTVSPost2010PropOp49
 70
     1
102
RTVSPost2010Prop50
 90
       50
102
RTVSPost2010PropOp50
 70
     1
102
RTVSPost2010Prop51ColorIndex
 90
      256
102
RTVSPost2010Prop51ColorRGB
 90
-16777216
102
RTVSPost2010PropOp51
 70
     0
102
RTVSPost2010Prop52
140
1.0
102
RTVSPost2010PropOp52
 70
     0
102
RTVSPost2010Prop53
 90
        2
102
RTVSPost2010PropOp53
 70
     1
102
RTVSPost2010Prop54
  1
strokes_ogs.tif
102
RTVSPost2010PropOp54
 70
     1
102
RTVSPost2010Prop55
280
     0
102
RTVSPost2010PropOp55
 70
     1
102
RTVSPost2010Prop56
140
1.0
102
RTVSPost2010PropOp56
 70
     1
102
RTVSPost2010Prop57
140
1.0
102
RTVSPost2010PropOp57
 70
     1
102
RTVSPropertyOp0
 70
     1
102
RTVSPropertyOp1
 70
     1
102
RTVSPropertyOp2
 70
     1
102
RTVSPropertyOp3
 70
     1
102
RTVSPropertyOp4
 70
     1
102
RTVSPropertyOp5
 70
     1
102
RTVSPropertyOp6
 70
     1
102
RTVSPropertyOp7
 70
     1
102
RTVSPropertyOp8
 70
     1
102
RTVSPropertyOp9
 70
     1
102
RTVSPropertyOp10
 70
     1
102
RTVSPropertyOp11
 70
     1
102
RTVSPropertyOp12
 70
     1
102
RTVSPropertyOp13
 70
     1
102
RTVSPropertyOp14
 70
     1
102
RTVSPropertyOp15
 70
     1
102
RTVSPropertyOp16
 70
     1
102
RTVSPropertyOp17
 70
     1
102
RTVSPropertyOp18
 70
     1
102
RTVSPropertyOp19
 70
     1
102
RTVSPropertyOp20
 70
     1
102
RTVSPropertyOp21
 70
     1
102
RTVSPropertyOp22
 70
     1
102
RTVSPropertyOp23
 70
     1
102
RTVSPropertyOp24
 70
     1
102
RTVSPropertyOp25
 70
     1
102
RTVSPropertyOp26
 70
     1
102
RTVSPropertyOp27
 70
     1
102
RTVSPropertyOp28
 70
     1
102
RTVSPropertyOp29
 70
     1
102
RTVSPropertyOp30
 70
     1
102
RTVSPropertyOp31
 70
     1
102
RTVSPropertyOp32
 70
     1
102
RTVSPropertyOp33
 70
     1
102
RTVSPropertyOp34
 70
     1
102
RTVSPropertyOp35
 70
     1
102
RTVSPropertyOp36
 70
     1
102
RTVSPropertyOp37
 70
     1
102
RTVSPropertyOp38
 70
     1
102
RTVSPropertyOp39
 70
     1
102
RTVSPropertyOp40
 70
     1
102
RTVSPropertyOp41
 70
     1
102
RTVSPropertyOp42
 70
     1
102
RTVSPropertyOp43
 70
     1
102
RTVSPropertyOp44
 70
     1
102
RTVSPropertyOp45
 70
     1
102
RTVSPropertyOp46
 70
     1
102
RTVSPropertyOp47
 70
     1
102
RTVSPropertyOp48
 70
     1
102
RTVSPropertyOp49
 70
     1
102
RTVSPropertyOp50
 70
     1
102
RTVSPropertyOp51
 70
     0
102
RTVSPropertyOp52
 70
     0
102
RTVSPropertyOp53
 70
     1
102
RTVSPropertyOp54
 70
     1
102
RTVSPropertyOp55
 70
     1
102
RTVSPropertyOp56
 70
     1
102
RTVSPropertyOp57
 70
     1
102
RTVSPropertyOp58
 70
     1
102
RTVSPropertyOp59
 70
     1
102
RTVSPropertyOp60
 70
     1
102
RTVSPropertyOp61
 70
     1
102
RTVSPropertyOp62
 70
     1
  0
XRECORD
  5
15D0
102
{ACAD_REACTORS
330
15CF
102
}
330
15CF
100
AcDbXrecord
280
     1
102
RTVSPost2010Prop28
280
     0
102
RTVSPost2010PropOp28
 70
     1
102
RTVSPost2010Prop29
280
     1
102
RTVSPost2010PropOp29
 70
     1
102
RTVSPost2010Prop30
280
     1
102
RTVSPost2010PropOp30
 70
     1
102
RTVSPost2010Prop31
280
     0
102
RTVSPost2010PropOp31
 70
     1
102
RTVSPost2010Prop32
280
     0
102
RTVSPost2010PropOp32
 70
     1
102
RTVSPost2010Prop33
280
     0
102
RTVSPost2010PropOp33
 70
     1
102
RTVSPost2010Prop34
280
     0
102
RTVSPost2010PropOp34
 70
     1
102
RTVSPost2010Prop35
280
     0
102
RTVSPost2010PropOp35
 70
     1
102
RTVSPost2010Prop36
280
     0
102
RTVSPost2010PropOp36
 70
     1
102
RTVSPost2010Prop37
 90
       50
102
RTVSPost2010PropOp37
 70
     1
102
RTVSPost2010Prop38
140
0.0
102
RTVSPost2010PropOp38
 70
     1
102
RTVSPost2010Prop39
140
1.0
102
RTVSPost2010PropOp39
 70
     1
102
RTVSPost2010Prop40
 90
        0
102
RTVSPost2010PropOp40
 70
     1
102
RTVSPost2010Prop41ColorIndex
 90
       18
102
RTVSPost2010Prop41ColorRGB
 90
        0
102
RTVSPost2010PropOp41
 70
     1
102
RTVSPost2010Prop42
 90
       50
102
RTVSPost2010PropOp42
 70
     1
102
RTVSPost2010Prop43
 90
        3
102
RTVSPost2010PropOp43
 70
     1
102
RTVSPost2010Prop44ColorIndex
 90
        5
102
RTVSPost2010Prop44ColorRGB
 90
      255
102
RTVSPost2010PropOp44
 70
     1
102
RTVSPost2010Prop45
280
     0
102
RTVSPost2010PropOp45
 70
     1
102
RTVSPost2010Prop46
 90
       50
102
RTVSPost2010PropOp46
 70
     1
102
RTVSPost2010Prop47
 90
       50
102
RTVSPost2010PropOp47
 70
     1
102
RTVSPost2010Prop48
 90
       50
102
RTVSPost2010PropOp48
 70
     1
102
RTVSPost2010Prop49
280
     0
102
RTVSPost2010PropOp49
 70
     1
102
RTVSPost2010Prop50
 90
       50
102
RTVSPost2010PropOp50
 70
     1
102
RTVSPost2010Prop51ColorIndex
 90
      256
102
RTVSPost2010Prop51ColorRGB
 90
-16777216
102
RTVSPost2010PropOp51
 70
     0
102
RTVSPost2010Prop52
140
1.0
102
RTVSPost2010PropOp52
 70
     0
102
RTVSPost2010Prop53
 90
        2
102
RTVSPost2010PropOp53
 70
     1
102
RTVSPost2010Prop54
  1
strokes_ogs.tif
102
RTVSPost2010PropOp54
 70
     1
102
RTVSPost2010Prop55
280
     0
102
RTVSPost2010PropOp55
 70
     1
102
RTVSPost2010Prop56
140
1.0
102
RTVSPost2010PropOp56
 70
     1
102
RTVSPost2010Prop57
140
1.0
102
RTVSPost2010PropOp57
 70
     1
102
RTVSPropertyOp0
 70
     1
102
RTVSPropertyOp1
 70
     1
102
RTVSPropertyOp2
 70
     1
102
RTVSPropertyOp3
 70
     1
102
RTVSPropertyOp4
 70
     1
102
RTVSPropertyOp5
 70
     1
102
RTVSPropertyOp6
 70
     1
102
RTVSPropertyOp7
 70
     1
102
RTVSPropertyOp8
 70
     1
102
RTVSPropertyOp9
 70
     1
102
RTVSPropertyOp10
 70
     1
102
RTVSPropertyOp11
 70
     1
102
RTVSPropertyOp12
 70
     1
102
RTVSPropertyOp13
 70
     1
102
RTVSPropertyOp14
 70
     1
102
RTVSPropertyOp15
 70
     1
102
RTVSPropertyOp16
 70
     1
102
RTVSPropertyOp17
 70
     1
102
RTVSPropertyOp18
 70
     1
102
RTVSPropertyOp19
 70
     1
102
RTVSPropertyOp20
 70
     1
102
RTVSPropertyOp21
 70
     1
102
RTVSPropertyOp22
 70
     1
102
RTVSPropertyOp23
 70
     1
102
RTVSPropertyOp24
 70
     1
102
RTVSPropertyOp25
 70
     1
102
RTVSPropertyOp26
 70
     1
102
RTVSPropertyOp27
 70
     1
102
RTVSPropertyOp28
 70
     1
102
RTVSPropertyOp29
 70
     1
102
RTVSPropertyOp30
 70
     1
102
RTVSPropertyOp31
 70
     1
102
RTVSPropertyOp32
 70
     1
102
RTVSPropertyOp33
 70
     1
102
RTVSPropertyOp34
 70
     1
102
RTVSPropertyOp35
 70
     1
102
RTVSPropertyOp36
 70
     1
102
RTVSPropertyOp37
 70
     1
102
RTVSPropertyOp38
 70
     1
102
RTVSPropertyOp39
 70
     1
102
RTVSPropertyOp40
 70
     1
102
RTVSPropertyOp41
 70
     1
102
RTVSPropertyOp42
 70
     1
102
RTVSPropertyOp43
 70
     1
102
RTVSPropertyOp44
 70
     1
102
RTVSPropertyOp45
 70
     1
102
RTVSPropertyOp46
 70
     1
102
RTVSPropertyOp47
 70
     1
102
RTVSPropertyOp48
 70
     1
102
RTVSPropertyOp49
 70
     1
102
RTVSPropertyOp50
 70
     1
102
RTVSPropertyOp51
 70
     0
102
RTVSPropertyOp52
 70
     0
102
RTVSPropertyOp53
 70
     1
102
RTVSPropertyOp54
 70
     1
102
RTVSPropertyOp55
 70
     1
102
RTVSPropertyOp56
 70
     1
102
RTVSPropertyOp57
 70
     1
102
RTVSPropertyOp58
 70
     1
102
RTVSPropertyOp59
 70
     1
102
RTVSPropertyOp60
 70
     1
102
RTVSPropertyOp61
 70
     1
102
RTVSPropertyOp62
 70
     1
  0
XRECORD
  5
15D8
102
{ACAD_REACTORS
330
15D7
102
}
330
15D7
100
AcDbXrecord
280
     1
102
RTVSPost2010Prop28
280
     0
102
RTVSPost2010PropOp28
 70
     1
102
RTVSPost2010Prop29
280
     1
102
RTVSPost2010PropOp29
 70
     1
102
RTVSPost2010Prop30
280
     1
102
RTVSPost2010PropOp30
 70
     1
102
RTVSPost2010Prop31
280
     0
102
RTVSPost2010PropOp31
 70
     1
102
RTVSPost2010Prop32
280
     0
102
RTVSPost2010PropOp32
 70
     1
102
RTVSPost2010Prop33
280
     0
102
RTVSPost2010PropOp33
 70
     1
102
RTVSPost2010Prop34
280
     0
102
RTVSPost2010PropOp34
 70
     1
102
RTVSPost2010Prop35
280
     0
102
RTVSPost2010PropOp35
 70
     1
102
RTVSPost2010Prop36
280
     0
102
RTVSPost2010PropOp36
 70
     1
102
RTVSPost2010Prop37
 90
       50
102
RTVSPost2010PropOp37
 70
     1
102
RTVSPost2010Prop38
140
0.0
102
RTVSPost2010PropOp38
 70
     1
102
RTVSPost2010Prop39
140
1.0
102
RTVSPost2010PropOp39
 70
     1
102
RTVSPost2010Prop40
 90
        0
102
RTVSPost2010PropOp40
 70
     1
102
RTVSPost2010Prop41ColorIndex
 90
       18
102
RTVSPost2010Prop41ColorRGB
 90
        0
102
RTVSPost2010PropOp41
 70
     1
102
RTVSPost2010Prop42
 90
       50
102
RTVSPost2010PropOp42
 70
     1
102
RTVSPost2010Prop43
 90
        3
102
RTVSPost2010PropOp43
 70
     1
102
RTVSPost2010Prop44ColorIndex
 90
        5
102
RTVSPost2010Prop44ColorRGB
 90
      255
102
RTVSPost2010PropOp44
 70
     1
102
RTVSPost2010Prop45
280
     0
102
RTVSPost2010PropOp45
 70
     1
102
RTVSPost2010Prop46
 90
       50
102
RTVSPost2010PropOp46
 70
     1
102
RTVSPost2010Prop47
 90
       50
102
RTVSPost2010PropOp47
 70
     1
102
RTVSPost2010Prop48
 90
       50
102
RTVSPost2010PropOp48
 70
     1
102
RTVSPost2010Prop49
280
     0
102
RTVSPost2010PropOp49
 70
     1
102
RTVSPost2010Prop50
 90
       50
102
RTVSPost2010PropOp50
 70
     1
102
RTVSPost2010Prop51ColorIndex
 90
      256
102
RTVSPost2010Prop51ColorRGB
 90
-16777216
102
RTVSPost2010PropOp51
 70
     0
102
RTVSPost2010Prop52
140
1.0
102
RTVSPost2010PropOp52
 70
     0
102
RTVSPost2010Prop53
 90
        2
102
RTVSPost2010PropOp53
 70
     1
102
RTVSPost2010Prop54
  1
strokes_ogs.tif
102
RTVSPost2010PropOp54
 70
     1
102
RTVSPost2010Prop55
280
     0
102
RTVSPost2010PropOp55
 70
     1
102
RTVSPost2010Prop56
140
1.0
102
RTVSPost2010PropOp56
 70
     1
102
RTVSPost2010Prop57
140
1.0
102
RTVSPost2010PropOp57
 70
     1
102
RTVSPropertyOp0
 70
     1
102
RTVSPropertyOp1
 70
     1
102
RTVSPropertyOp2
 70
     1
102
RTVSPropertyOp3
 70
     1
102
RTVSPropertyOp4
 70
     1
102
RTVSPropertyOp5
 70
     1
102
RTVSPropertyOp6
 70
     1
102
RTVSPropertyOp7
 70
     1
102
RTVSPropertyOp8
 70
     1
102
RTVSPropertyOp9
 70
     1
102
RTVSPropertyOp10
 70
     1
102
RTVSPropertyOp11
 70
     1
102
RTVSPropertyOp12
 70
     1
102
RTVSPropertyOp13
 70
     1
102
RTVSPropertyOp14
 70
     1
102
RTVSPropertyOp15
 70
     1
102
RTVSPropertyOp16
 70
     1
102
RTVSPropertyOp17
 70
     1
102
RTVSPropertyOp18
 70
     1
102
RTVSPropertyOp19
 70
     1
102
RTVSPropertyOp20
 70
     1
102
RTVSPropertyOp21
 70
     1
102
RTVSPropertyOp22
 70
     1
102
RTVSPropertyOp23
 70
     1
102
RTVSPropertyOp24
 70
     1
102
RTVSPropertyOp25
 70
     1
102
RTVSPropertyOp26
 70
     1
102
RTVSPropertyOp27
 70
     1
102
RTVSPropertyOp28
 70
     1
102
RTVSPropertyOp29
 70
     1
102
RTVSPropertyOp30
 70
     1
102
RTVSPropertyOp31
 70
     1
102
RTVSPropertyOp32
 70
     1
102
RTVSPropertyOp33
 70
     1
102
RTVSPropertyOp34
 70
     1
102
RTVSPropertyOp35
 70
     1
102
RTVSPropertyOp36
 70
     1
102
RTVSPropertyOp37
 70
     1
102
RTVSPropertyOp38
 70
     1
102
RTVSPropertyOp39
 70
     1
102
RTVSPropertyOp40
 70
     1
102
RTVSPropertyOp41
 70
     1
102
RTVSPropertyOp42
 70
     1
102
RTVSPropertyOp43
 70
     1
102
RTVSPropertyOp44
 70
     1
102
RTVSPropertyOp45
 70
     1
102
RTVSPropertyOp46
 70
     1
102
RTVSPropertyOp47
 70
     1
102
RTVSPropertyOp48
 70
     1
102
RTVSPropertyOp49
 70
     1
102
RTVSPropertyOp50
 70
     1
102
RTVSPropertyOp51
 70
     0
102
RTVSPropertyOp52
 70
     0
102
RTVSPropertyOp53
 70
     1
102
RTVSPropertyOp54
 70
     1
102
RTVSPropertyOp55
 70
     1
102
RTVSPropertyOp56
 70
     1
102
RTVSPropertyOp57
 70
     1
102
RTVSPropertyOp58
 70
     1
102
RTVSPropertyOp59
 70
     1
102
RTVSPropertyOp60
 70
     1
102
RTVSPropertyOp61
 70
     1
102
RTVSPropertyOp62
 70
     1
  0
XRECORD
  5
15CA
102
{ACAD_REACTORS
330
15C9
102
}
330
15C9
100
AcDbXrecord
280
     1
102
RTVSPost2010Prop28
280
     0
102
RTVSPost2010PropOp28
 70
     1
102
RTVSPost2010Prop29
280
     1
102
RTVSPost2010PropOp29
 70
     1
102
RTVSPost2010Prop30
280
     1
102
RTVSPost2010PropOp30
 70
     1
102
RTVSPost2010Prop31
280
     0
102
RTVSPost2010PropOp31
 70
     1
102
RTVSPost2010Prop32
280
     0
102
RTVSPost2010PropOp32
 70
     1
102
RTVSPost2010Prop33
280
     0
102
RTVSPost2010PropOp33
 70
     1
102
RTVSPost2010Prop34
280
     0
102
RTVSPost2010PropOp34
 70
     1
102
RTVSPost2010Prop35
280
     0
102
RTVSPost2010PropOp35
 70
     1
102
RTVSPost2010Prop36
280
     0
102
RTVSPost2010PropOp36
 70
     1
102
RTVSPost2010Prop37
 90
       50
102
RTVSPost2010PropOp37
 70
     1
102
RTVSPost2010Prop38
140
0.0
102
RTVSPost2010PropOp38
 70
     1
102
RTVSPost2010Prop39
140
1.0
102
RTVSPost2010PropOp39
 70
     1
102
RTVSPost2010Prop40
 90
        0
102
RTVSPost2010PropOp40
 70
     1
102
RTVSPost2010Prop41ColorIndex
 90
       18
102
RTVSPost2010Prop41ColorRGB
 90
        0
102
RTVSPost2010PropOp41
 70
     1
102
RTVSPost2010Prop42
 90
       50
102
RTVSPost2010PropOp42
 70
     1
102
RTVSPost2010Prop43
 90
        3
102
RTVSPost2010PropOp43
 70
     1
102
RTVSPost2010Prop44ColorIndex
 90
        5
102
RTVSPost2010Prop44ColorRGB
 90
      255
102
RTVSPost2010PropOp44
 70
     1
102
RTVSPost2010Prop45
280
     0
102
RTVSPost2010PropOp45
 70
     1
102
RTVSPost2010Prop46
 90
       50
102
RTVSPost2010PropOp46
 70
     1
102
RTVSPost2010Prop47
 90
       50
102
RTVSPost2010PropOp47
 70
     1
102
RTVSPost2010Prop48
 90
       50
102
RTVSPost2010PropOp48
 70
     1
102
RTVSPost2010Prop49
280
     0
102
RTVSPost2010PropOp49
 70
     1
102
RTVSPost2010Prop50
 90
       50
102
RTVSPost2010PropOp50
 70
     1
102
RTVSPost2010Prop51ColorIndex
 90
      256
102
RTVSPost2010Prop51ColorRGB
 90
-16777216
102
RTVSPost2010PropOp51
 70
     0
102
RTVSPost2010Prop52
140
1.0
102
RTVSPost2010PropOp52
 70
     0
102
RTVSPost2010Prop53
 90
        2
102
RTVSPost2010PropOp53
 70
     1
102
RTVSPost2010Prop54
  1
strokes_ogs.tif
102
RTVSPost2010PropOp54
 70
     1
102
RTVSPost2010Prop55
280
     0
102
RTVSPost2010PropOp55
 70
     1
102
RTVSPost2010Prop56
140
1.0
102
RTVSPost2010PropOp56
 70
     1
102
RTVSPost2010Prop57
140
1.0
102
RTVSPost2010PropOp57
 70
     1
102
RTVSPropertyOp0
 70
     1
102
RTVSPropertyOp1
 70
     1
102
RTVSPropertyOp2
 70
     1
102
RTVSPropertyOp3
 70
     1
102
RTVSPropertyOp4
 70
     1
102
RTVSPropertyOp5
 70
     1
102
RTVSPropertyOp6
 70
     1
102
RTVSPropertyOp7
 70
     1
102
RTVSPropertyOp8
 70
     1
102
RTVSPropertyOp9
 70
     1
102
RTVSPropertyOp10
 70
     1
102
RTVSPropertyOp11
 70
     1
102
RTVSPropertyOp12
 70
     1
102
RTVSPropertyOp13
 70
     1
102
RTVSPropertyOp14
 70
     1
102
RTVSPropertyOp15
 70
     1
102
RTVSPropertyOp16
 70
     1
102
RTVSPropertyOp17
 70
     1
102
RTVSPropertyOp18
 70
     1
102
RTVSPropertyOp19
 70
     1
102
RTVSPropertyOp20
 70
     1
102
RTVSPropertyOp21
 70
     1
102
RTVSPropertyOp22
 70
     1
102
RTVSPropertyOp23
 70
     1
102
RTVSPropertyOp24
 70
     1
102
RTVSPropertyOp25
 70
     1
102
RTVSPropertyOp26
 70
     1
102
RTVSPropertyOp27
 70
     1
102
RTVSPropertyOp28
 70
     1
102
RTVSPropertyOp29
 70
     1
102
RTVSPropertyOp30
 70
     1
102
RTVSPropertyOp31
 70
     1
102
RTVSPropertyOp32
 70
     1
102
RTVSPropertyOp33
 70
     1
102
RTVSPropertyOp34
 70
     1
102
RTVSPropertyOp35
 70
     1
102
RTVSPropertyOp36
 70
     1
102
RTVSPropertyOp37
 70
     1
102
RTVSPropertyOp38
 70
     1
102
RTVSPropertyOp39
 70
     1
102
RTVSPropertyOp40
 70
     1
102
RTVSPropertyOp41
 70
     1
102
RTVSPropertyOp42
 70
     1
102
RTVSPropertyOp43
 70
     1
102
RTVSPropertyOp44
 70
     1
102
RTVSPropertyOp45
 70
     1
102
RTVSPropertyOp46
 70
     1
102
RTVSPropertyOp47
 70
     1
102
RTVSPropertyOp48
 70
     1
102
RTVSPropertyOp49
 70
     1
102
RTVSPropertyOp50
 70
     1
102
RTVSPropertyOp51
 70
     0
102
RTVSPropertyOp52
 70
     0
102
RTVSPropertyOp53
 70
     1
102
RTVSPropertyOp54
 70
     1
102
RTVSPropertyOp55
 70
     1
102
RTVSPropertyOp56
 70
     1
102
RTVSPropertyOp57
 70
     1
102
RTVSPropertyOp58
 70
     1
102
RTVSPropertyOp59
 70
     1
102
RTVSPropertyOp60
 70
     1
102
RTVSPropertyOp61
 70
     1
102
RTVSPropertyOp62
 70
     1
  0
XRECORD
  5
15CE
102
{ACAD_REACTORS
330
15CD
102
}
330
15CD
100
AcDbXrecord
280
     1
102
RTVSPost2010Prop28
280
     0
102
RTVSPost2010PropOp28
 70
     1
102
RTVSPost2010Prop29
280
     1
102
RTVSPost2010PropOp29
 70
     1
102
RTVSPost2010Prop30
280
     1
102
RTVSPost2010PropOp30
 70
     1
102
RTVSPost2010Prop31
280
     0
102
RTVSPost2010PropOp31
 70
     1
102
RTVSPost2010Prop32
280
     0
102
RTVSPost2010PropOp32
 70
     1
102
RTVSPost2010Prop33
280
     0
102
RTVSPost2010PropOp33
 70
     1
102
RTVSPost2010Prop34
280
     0
102
RTVSPost2010PropOp34
 70
     1
102
RTVSPost2010Prop35
280
     0
102
RTVSPost2010PropOp35
 70
     1
102
RTVSPost2010Prop36
280
     0
102
RTVSPost2010PropOp36
 70
     1
102
RTVSPost2010Prop37
 90
       50
102
RTVSPost2010PropOp37
 70
     1
102
RTVSPost2010Prop38
140
0.0
102
RTVSPost2010PropOp38
 70
     1
102
RTVSPost2010Prop39
140
1.0
102
RTVSPost2010PropOp39
 70
     1
102
RTVSPost2010Prop40
 90
        0
102
RTVSPost2010PropOp40
 70
     1
102
RTVSPost2010Prop41ColorIndex
 90
       18
102
RTVSPost2010Prop41ColorRGB
 90
        0
102
RTVSPost2010PropOp41
 70
     1
102
RTVSPost2010Prop42
 90
       50
102
RTVSPost2010PropOp42
 70
     1
102
RTVSPost2010Prop43
 90
        3
102
RTVSPost2010PropOp43
 70
     1
102
RTVSPost2010Prop44ColorIndex
 90
        5
102
RTVSPost2010Prop44ColorRGB
 90
      255
102
RTVSPost2010PropOp44
 70
     1
102
RTVSPost2010Prop45
280
     0
102
RTVSPost2010PropOp45
 70
     1
102
RTVSPost2010Prop46
 90
       50
102
RTVSPost2010PropOp46
 70
     1
102
RTVSPost2010Prop47
 90
       50
102
RTVSPost2010PropOp47
 70
     1
102
RTVSPost2010Prop48
 90
       50
102
RTVSPost2010PropOp48
 70
     1
102
RTVSPost2010Prop49
280
     0
102
RTVSPost2010PropOp49
 70
     1
102
RTVSPost2010Prop50
 90
       50
102
RTVSPost2010PropOp50
 70
     1
102
RTVSPost2010Prop51ColorIndex
 90
      256
102
RTVSPost2010Prop51ColorRGB
 90
-16777216
102
RTVSPost2010PropOp51
 70
     0
102
RTVSPost2010Prop52
140
1.0
102
RTVSPost2010PropOp52
 70
     0
102
RTVSPost2010Prop53
 90
        2
102
RTVSPost2010PropOp53
 70
     1
102
RTVSPost2010Prop54
  1
strokes_ogs.tif
102
RTVSPost2010PropOp54
 70
     1
102
RTVSPost2010Prop55
280
     0
102
RTVSPost2010PropOp55
 70
     1
102
RTVSPost2010Prop56
140
1.0
102
RTVSPost2010PropOp56
 70
     1
102
RTVSPost2010Prop57
140
1.0
102
RTVSPost2010PropOp57
 70
     1
102
RTVSPropertyOp0
 70
     1
102
RTVSPropertyOp1
 70
     1
102
RTVSPropertyOp2
 70
     1
102
RTVSPropertyOp3
 70
     1
102
RTVSPropertyOp4
 70
     1
102
RTVSPropertyOp5
 70
     1
102
RTVSPropertyOp6
 70
     1
102
RTVSPropertyOp7
 70
     1
102
RTVSPropertyOp8
 70
     1
102
RTVSPropertyOp9
 70
     1
102
RTVSPropertyOp10
 70
     1
102
RTVSPropertyOp11
 70
     1
102
RTVSPropertyOp12
 70
     1
102
RTVSPropertyOp13
 70
     1
102
RTVSPropertyOp14
 70
     1
102
RTVSPropertyOp15
 70
     1
102
RTVSPropertyOp16
 70
     1
102
RTVSPropertyOp17
 70
     1
102
RTVSPropertyOp18
 70
     1
102
RTVSPropertyOp19
 70
     1
102
RTVSPropertyOp20
 70
     1
102
RTVSPropertyOp21
 70
     1
102
RTVSPropertyOp22
 70
     1
102
RTVSPropertyOp23
 70
     1
102
RTVSPropertyOp24
 70
     1
102
RTVSPropertyOp25
 70
     1
102
RTVSPropertyOp26
 70
     1
102
RTVSPropertyOp27
 70
     1
102
RTVSPropertyOp28
 70
     1
102
RTVSPropertyOp29
 70
     1
102
RTVSPropertyOp30
 70
     1
102
RTVSPropertyOp31
 70
     1
102
RTVSPropertyOp32
 70
     1
102
RTVSPropertyOp33
 70
     1
102
RTVSPropertyOp34
 70
     1
102
RTVSPropertyOp35
 70
     1
102
RTVSPropertyOp36
 70
     1
102
RTVSPropertyOp37
 70
     1
102
RTVSPropertyOp38
 70
     1
102
RTVSPropertyOp39
 70
     1
102
RTVSPropertyOp40
 70
     1
102
RTVSPropertyOp41
 70
     1
102
RTVSPropertyOp42
 70
     1
102
RTVSPropertyOp43
 70
     1
102
RTVSPropertyOp44
 70
     1
102
RTVSPropertyOp45
 70
     1
102
RTVSPropertyOp46
 70
     1
102
RTVSPropertyOp47
 70
     1
102
RTVSPropertyOp48
 70
     1
102
RTVSPropertyOp49
 70
     1
102
RTVSPropertyOp50
 70
     1
102
RTVSPropertyOp51
 70
     0
102
RTVSPropertyOp52
 70
     0
102
RTVSPropertyOp53
 70
     1
102
RTVSPropertyOp54
 70
     1
102
RTVSPropertyOp55
 70
     1
102
RTVSPropertyOp56
 70
     1
102
RTVSPropertyOp57
 70
     1
102
RTVSPropertyOp58
 70
     1
102
RTVSPropertyOp59
 70
     1
102
RTVSPropertyOp60
 70
     1
102
RTVSPropertyOp61
 70
     1
102
RTVSPropertyOp62
 70
     1
  0
XRECORD
  5
15EC
102
{ACAD_REACTORS
330
15EB
102
}
330
15EB
100
AcDbXrecord
280
     1
102
RTVSPost2010Prop28
280
     0
102
RTVSPost2010PropOp28
 70
     1
102
RTVSPost2010Prop29
280
     1
102
RTVSPost2010PropOp29
 70
     1
102
RTVSPost2010Prop30
280
     1
102
RTVSPost2010PropOp30
 70
     1
102
RTVSPost2010Prop31
280
     0
102
RTVSPost2010PropOp31
 70
     1
102
RTVSPost2010Prop32
280
     0
102
RTVSPost2010PropOp32
 70
     1
102
RTVSPost2010Prop33
280
     0
102
RTVSPost2010PropOp33
 70
     1
102
RTVSPost2010Prop34
280
     0
102
RTVSPost2010PropOp34
 70
     1
102
RTVSPost2010Prop35
280
     0
102
RTVSPost2010PropOp35
 70
     1
102
RTVSPost2010Prop36
280
     0
102
RTVSPost2010PropOp36
 70
     1
102
RTVSPost2010Prop37
 90
       50
102
RTVSPost2010PropOp37
 70
     0
102
RTVSPost2010Prop38
140
0.0
102
RTVSPost2010PropOp38
 70
     0
102
RTVSPost2010Prop39
140
1.0
102
RTVSPost2010PropOp39
 70
     0
102
RTVSPost2010Prop40
 90
        0
102
RTVSPost2010PropOp40
 70
     0
102
RTVSPost2010Prop41ColorIndex
 90
       18
102
RTVSPost2010Prop41ColorRGB
 90
        0
102
RTVSPost2010PropOp41
 70
     0
102
RTVSPost2010Prop42
 90
       50
102
RTVSPost2010PropOp42
 70
     0
102
RTVSPost2010Prop43
 90
        3
102
RTVSPost2010PropOp43
 70
     0
102
RTVSPost2010Prop44ColorIndex
 90
        5
102
RTVSPost2010Prop44ColorRGB
 90
      255
102
RTVSPost2010PropOp44
 70
     0
102
RTVSPost2010Prop45
280
     0
102
RTVSPost2010PropOp45
 70
     1
102
RTVSPost2010Prop46
 90
       50
102
RTVSPost2010PropOp46
 70
     0
102
RTVSPost2010Prop47
 90
       50
102
RTVSPost2010PropOp47
 70
     0
102
RTVSPost2010Prop48
 90
       50
102
RTVSPost2010PropOp48
 70
     0
102
RTVSPost2010Prop49
280
     0
102
RTVSPost2010PropOp49
 70
     1
102
RTVSPost2010Prop50
 90
       50
102
RTVSPost2010PropOp50
 70
     0
102
RTVSPost2010Prop51ColorIndex
 90
      256
102
RTVSPost2010Prop51ColorRGB
 90
-16777216
102
RTVSPost2010PropOp51
 70
     0
102
RTVSPost2010Prop52
140
1.0
102
RTVSPost2010PropOp52
 70
     0
102
RTVSPost2010Prop53
 90
        2
102
RTVSPost2010PropOp53
 70
     0
102
RTVSPost2010Prop54
  1
strokes_ogs.tif
102
RTVSPost2010PropOp54
 70
     0
102
RTVSPost2010Prop55
280
     0
102
RTVSPost2010PropOp55
 70
     1
102
RTVSPost2010Prop56
140
1.0
102
RTVSPost2010PropOp56
 70
     0
102
RTVSPost2010Prop57
140
1.0
102
RTVSPost2010PropOp57
 70
     0
102
RTVSPropertyOp0
 70
     0
102
RTVSPropertyOp1
 70
     0
102
RTVSPropertyOp2
 70
     0
102
RTVSPropertyOp3
 70
     0
102
RTVSPropertyOp4
 70
     0
102
RTVSPropertyOp5
 70
     0
102
RTVSPropertyOp6
 70
     0
102
RTVSPropertyOp7
 70
     0
102
RTVSPropertyOp8
 70
     0
102
RTVSPropertyOp9
 70
     0
102
RTVSPropertyOp10
 70
     0
102
RTVSPropertyOp11
 70
     0
102
RTVSPropertyOp12
 70
     0
102
RTVSPropertyOp13
 70
     0
102
RTVSPropertyOp14
 70
     2
102
RTVSPropertyOp15
 70
     0
102
RTVSPropertyOp16
 70
     0
102
RTVSPropertyOp17
 70
     0
102
RTVSPropertyOp18
 70
     0
102
RTVSPropertyOp19
 70
     0
102
RTVSPropertyOp20
 70
     0
102
RTVSPropertyOp21
 70
     0
102
RTVSPropertyOp22
 70
     0
102
RTVSPropertyOp23
 70
     0
102
RTVSPropertyOp24
 70
     0
102
RTVSPropertyOp25
 70
     0
102
RTVSPropertyOp26
 70
     0
102
RTVSPropertyOp27
 70
     0
102
RTVSPropertyOp28
 70
     1
102
RTVSPropertyOp29
 70
     1
102
RTVSPropertyOp30
 70
     1
102
RTVSPropertyOp31
 70
     1
102
RTVSPropertyOp32
 70
     1
102
RTVSPropertyOp33
 70
     1
102
RTVSPropertyOp34
 70
     1
102
RTVSPropertyOp35
 70
     1
102
RTVSPropertyOp36
 70
     1
102
RTVSPropertyOp37
 70
     0
102
RTVSPropertyOp38
 70
     0
102
RTVSPropertyOp39
 70
     0
102
RTVSPropertyOp40
 70
     0
102
RTVSPropertyOp41
 70
     0
102
RTVSPropertyOp42
 70
     0
102
RTVSPropertyOp43
 70
     0
102
RTVSPropertyOp44
 70
     0
102
RTVSPropertyOp45
 70
     1
102
RTVSPropertyOp46
 70
     0
102
RTVSPropertyOp47
 70
     0
102
RTVSPropertyOp48
 70
     0
102
RTVSPropertyOp49
 70
     1
102
RTVSPropertyOp50
 70
     0
102
RTVSPropertyOp51
 70
     0
102
RTVSPropertyOp52
 70
     0
102
RTVSPropertyOp53
 70
     0
102
RTVSPropertyOp54
 70
     0
102
RTVSPropertyOp55
 70
     1
102
RTVSPropertyOp56
 70
     0
102
RTVSPropertyOp57
 70
     0
102
RTVSPropertyOp58
 70
     0
102
RTVSPropertyOp59
 70
     0
102
RTVSPropertyOp60
 70
     0
102
RTVSPropertyOp61
 70
     0
102
RTVSPropertyOp62
 70
     0
  0
XRECORD
  5
15D6
102
{ACAD_REACTORS
330
15D5
102
}
330
15D5
100
AcDbXrecord
280
     1
102
RTVSPost2010Prop28
280
     0
102
RTVSPost2010PropOp28
 70
     1
102
RTVSPost2010Prop29
280
     1
102
RTVSPost2010PropOp29
 70
     1
102
RTVSPost2010Prop30
280
     1
102
RTVSPost2010PropOp30
 70
     1
102
RTVSPost2010Prop31
280
     0
102
RTVSPost2010PropOp31
 70
     1
102
RTVSPost2010Prop32
280
     0
102
RTVSPost2010PropOp32
 70
     1
102
RTVSPost2010Prop33
280
     0
102
RTVSPost2010PropOp33
 70
     1
102
RTVSPost2010Prop34
280
     0
102
RTVSPost2010PropOp34
 70
     1
102
RTVSPost2010Prop35
280
     0
102
RTVSPost2010PropOp35
 70
     1
102
RTVSPost2010Prop36
280
     0
102
RTVSPost2010PropOp36
 70
     1
102
RTVSPost2010Prop37
 90
       50
102
RTVSPost2010PropOp37
 70
     1
102
RTVSPost2010Prop38
140
0.0
102
RTVSPost2010PropOp38
 70
     1
102
RTVSPost2010Prop39
140
1.0
102
RTVSPost2010PropOp39
 70
     1
102
RTVSPost2010Prop40
 90
        0
102
RTVSPost2010PropOp40
 70
     1
102
RTVSPost2010Prop41ColorIndex
 90
       18
102
RTVSPost2010Prop41ColorRGB
 90
        0
102
RTVSPost2010PropOp41
 70
     1
102
RTVSPost2010Prop42
 90
       50
102
RTVSPost2010PropOp42
 70
     1
102
RTVSPost2010Prop43
 90
        3
102
RTVSPost2010PropOp43
 70
     1
102
RTVSPost2010Prop44ColorIndex
 90
        5
102
RTVSPost2010Prop44ColorRGB
 90
      255
102
RTVSPost2010PropOp44
 70
     1
102
RTVSPost2010Prop45
280
     0
102
RTVSPost2010PropOp45
 70
     1
102
RTVSPost2010Prop46
 90
       50
102
RTVSPost2010PropOp46
 70
     1
102
RTVSPost2010Prop47
 90
       50
102
RTVSPost2010PropOp47
 70
     1
102
RTVSPost2010Prop48
 90
       50
102
RTVSPost2010PropOp48
 70
     1
102
RTVSPost2010Prop49
280
     0
102
RTVSPost2010PropOp49
 70
     1
102
RTVSPost2010Prop50
 90
       50
102
RTVSPost2010PropOp50
 70
     1
102
RTVSPost2010Prop51ColorIndex
 90
      256
102
RTVSPost2010Prop51ColorRGB
 90
-16777216
102
RTVSPost2010PropOp51
 70
     0
102
RTVSPost2010Prop52
140
1.0
102
RTVSPost2010PropOp52
 70
     0
102
RTVSPost2010Prop53
 90
        2
102
RTVSPost2010PropOp53
 70
     1
102
RTVSPost2010Prop54
  1
strokes_ogs.tif
102
RTVSPost2010PropOp54
 70
     1
102
RTVSPost2010Prop55
280
     0
102
RTVSPost2010PropOp55
 70
     1
102
RTVSPost2010Prop56
140
1.0
102
RTVSPost2010PropOp56
 70
     1
102
RTVSPost2010Prop57
140
1.0
102
RTVSPost2010PropOp57
 70
     1
102
RTVSPropertyOp0
 70
     1
102
RTVSPropertyOp1
 70
     1
102
RTVSPropertyOp2
 70
     1
102
RTVSPropertyOp3
 70
     1
102
RTVSPropertyOp4
 70
     1
102
RTVSPropertyOp5
 70
     1
102
RTVSPropertyOp6
 70
     1
102
RTVSPropertyOp7
 70
     1
102
RTVSPropertyOp8
 70
     1
102
RTVSPropertyOp9
 70
     1
102
RTVSPropertyOp10
 70
     1
102
RTVSPropertyOp11
 70
     1
102
RTVSPropertyOp12
 70
     1
102
RTVSPropertyOp13
 70
     1
102
RTVSPropertyOp14
 70
     1
102
RTVSPropertyOp15
 70
     1
102
RTVSPropertyOp16
 70
     1
102
RTVSPropertyOp17
 70
     1
102
RTVSPropertyOp18
 70
     1
102
RTVSPropertyOp19
 70
     1
102
RTVSPropertyOp20
 70
     1
102
RTVSPropertyOp21
 70
     1
102
RTVSPropertyOp22
 70
     1
102
RTVSPropertyOp23
 70
     1
102
RTVSPropertyOp24
 70
     1
102
RTVSPropertyOp25
 70
     1
102
RTVSPropertyOp26
 70
     1
102
RTVSPropertyOp27
 70
     1
102
RTVSPropertyOp28
 70
     1
102
RTVSPropertyOp29
 70
     1
102
RTVSPropertyOp30
 70
     1
102
RTVSPropertyOp31
 70
     1
102
RTVSPropertyOp32
 70
     1
102
RTVSPropertyOp33
 70
     1
102
RTVSPropertyOp34
 70
     1
102
RTVSPropertyOp35
 70
     1
102
RTVSPropertyOp36
 70
     1
102
RTVSPropertyOp37
 70
     1
102
RTVSPropertyOp38
 70
     1
102
RTVSPropertyOp39
 70
     1
102
RTVSPropertyOp40
 70
     1
102
RTVSPropertyOp41
 70
     1
102
RTVSPropertyOp42
 70
     1
102
RTVSPropertyOp43
 70
     1
102
RTVSPropertyOp44
 70
     1
102
RTVSPropertyOp45
 70
     1
102
RTVSPropertyOp46
 70
     1
102
RTVSPropertyOp47
 70
     1
102
RTVSPropertyOp48
 70
     1
102
RTVSPropertyOp49
 70
     1
102
RTVSPropertyOp50
 70
     1
102
RTVSPropertyOp51
 70
     0
102
RTVSPropertyOp52
 70
     0
102
RTVSPropertyOp53
 70
     1
102
RTVSPropertyOp54
 70
     1
102
RTVSPropertyOp55
 70
     1
102
RTVSPropertyOp56
 70
     1
102
RTVSPropertyOp57
 70
     1
102
RTVSPropertyOp58
 70
     1
102
RTVSPropertyOp59
 70
     1
102
RTVSPropertyOp60
 70
     1
102
RTVSPropertyOp61
 70
     1
102
RTVSPropertyOp62
 70
     1
  0
XRECORD
  5
15BA
102
{ACAD_REACTORS
330
15B9
102
}
330
15B9
100
AcDbXrecord
280
     1
102
RTVSPost2010Prop28
280
     0
102
RTVSPost2010PropOp28
 70
     1
102
RTVSPost2010Prop29
280
     1
102
RTVSPost2010PropOp29
 70
     1
102
RTVSPost2010Prop30
280
     1
102
RTVSPost2010PropOp30
 70
     1
102
RTVSPost2010Prop31
280
     0
102
RTVSPost2010PropOp31
 70
     1
102
RTVSPost2010Prop32
280
     0
102
RTVSPost2010PropOp32
 70
     1
102
RTVSPost2010Prop33
280
     0
102
RTVSPost2010PropOp33
 70
     1
102
RTVSPost2010Prop34
280
     0
102
RTVSPost2010PropOp34
 70
     1
102
RTVSPost2010Prop35
280
     0
102
RTVSPost2010PropOp35
 70
     1
102
RTVSPost2010Prop36
280
     0
102
RTVSPost2010PropOp36
 70
     1
102
RTVSPost2010Prop37
 90
       50
102
RTVSPost2010PropOp37
 70
     1
102
RTVSPost2010Prop38
140
0.0
102
RTVSPost2010PropOp38
 70
     1
102
RTVSPost2010Prop39
140
1.0
102
RTVSPost2010PropOp39
 70
     1
102
RTVSPost2010Prop40
 90
        0
102
RTVSPost2010PropOp40
 70
     1
102
RTVSPost2010Prop41ColorIndex
 90
       18
102
RTVSPost2010Prop41ColorRGB
 90
        0
102
RTVSPost2010PropOp41
 70
     1
102
RTVSPost2010Prop42
 90
       50
102
RTVSPost2010PropOp42
 70
     1
102
RTVSPost2010Prop43
 90
        3
102
RTVSPost2010PropOp43
 70
     1
102
RTVSPost2010Prop44ColorIndex
 90
        5
102
RTVSPost2010Prop44ColorRGB
 90
      255
102
RTVSPost2010PropOp44
 70
     1
102
RTVSPost2010Prop45
280
     0
102
RTVSPost2010PropOp45
 70
     1
102
RTVSPost2010Prop46
 90
       50
102
RTVSPost2010PropOp46
 70
     1
102
RTVSPost2010Prop47
 90
       50
102
RTVSPost2010PropOp47
 70
     1
102
RTVSPost2010Prop48
 90
       50
102
RTVSPost2010PropOp48
 70
     1
102
RTVSPost2010Prop49
280
     0
102
RTVSPost2010PropOp49
 70
     1
102
RTVSPost2010Prop50
 90
       50
102
RTVSPost2010PropOp50
 70
     1
102
RTVSPost2010Prop51ColorIndex
 90
      256
102
RTVSPost2010Prop51ColorRGB
 90
-16777216
102
RTVSPost2010PropOp51
 70
     0
102
RTVSPost2010Prop52
140
1.0
102
RTVSPost2010PropOp52
 70
     0
102
RTVSPost2010Prop53
 90
        2
102
RTVSPost2010PropOp53
 70
     1
102
RTVSPost2010Prop54
  1
strokes_ogs.tif
102
RTVSPost2010PropOp54
 70
     1
102
RTVSPost2010Prop55
280
     0
102
RTVSPost2010PropOp55
 70
     1
102
RTVSPost2010Prop56
140
1.0
102
RTVSPost2010PropOp56
 70
     1
102
RTVSPost2010Prop57
140
1.0
102
RTVSPost2010PropOp57
 70
     1
102
RTVSPropertyOp0
 70
     1
102
RTVSPropertyOp1
 70
     1
102
RTVSPropertyOp2
 70
     1
102
RTVSPropertyOp3
 70
     1
102
RTVSPropertyOp4
 70
     1
102
RTVSPropertyOp5
 70
     1
102
RTVSPropertyOp6
 70
     1
102
RTVSPropertyOp7
 70
     1
102
RTVSPropertyOp8
 70
     1
102
RTVSPropertyOp9
 70
     1
102
RTVSPropertyOp10
 70
     1
102
RTVSPropertyOp11
 70
     1
102
RTVSPropertyOp12
 70
     1
102
RTVSPropertyOp13
 70
     1
102
RTVSPropertyOp14
 70
     1
102
RTVSPropertyOp15
 70
     1
102
RTVSPropertyOp16
 70
     1
102
RTVSPropertyOp17
 70
     1
102
RTVSPropertyOp18
 70
     1
102
RTVSPropertyOp19
 70
     1
102
RTVSPropertyOp20
 70
     1
102
RTVSPropertyOp21
 70
     1
102
RTVSPropertyOp22
 70
     1
102
RTVSPropertyOp23
 70
     1
102
RTVSPropertyOp24
 70
     1
102
RTVSPropertyOp25
 70
     1
102
RTVSPropertyOp26
 70
     1
102
RTVSPropertyOp27
 70
     1
102
RTVSPropertyOp28
 70
     1
102
RTVSPropertyOp29
 70
     1
102
RTVSPropertyOp30
 70
     1
102
RTVSPropertyOp31
 70
     1
102
RTVSPropertyOp32
 70
     1
102
RTVSPropertyOp33
 70
     1
102
RTVSPropertyOp34
 70
     1
102
RTVSPropertyOp35
 70
     1
102
RTVSPropertyOp36
 70
     1
102
RTVSPropertyOp37
 70
     1
102
RTVSPropertyOp38
 70
     1
102
RTVSPropertyOp39
 70
     1
102
RTVSPropertyOp40
 70
     1
102
RTVSPropertyOp41
 70
     1
102
RTVSPropertyOp42
 70
     1
102
RTVSPropertyOp43
 70
     1
102
RTVSPropertyOp44
 70
     1
102
RTVSPropertyOp45
 70
     1
102
RTVSPropertyOp46
 70
     1
102
RTVSPropertyOp47
 70
     1
102
RTVSPropertyOp48
 70
     1
102
RTVSPropertyOp49
 70
     1
102
RTVSPropertyOp50
 70
     1
102
RTVSPropertyOp51
 70
     0
102
RTVSPropertyOp52
 70
     0
102
RTVSPropertyOp53
 70
     1
102
RTVSPropertyOp54
 70
     1
102
RTVSPropertyOp55
 70
     1
102
RTVSPropertyOp56
 70
     1
102
RTVSPropertyOp57
 70
     1
102
RTVSPropertyOp58
 70
     1
102
RTVSPropertyOp59
 70
     1
102
RTVSPropertyOp60
 70
     1
102
RTVSPropertyOp61
 70
     1
102
RTVSPropertyOp62
 70
     1
  0
XRECORD
  5
15BC
102
{ACAD_REACTORS
330
15BB
102
}
330
15BB
100
AcDbXrecord
280
     1
102
RTVSPost2010Prop28
280
     0
102
RTVSPost2010PropOp28
 70
     1
102
RTVSPost2010Prop29
280
     1
102
RTVSPost2010PropOp29
 70
     1
102
RTVSPost2010Prop30
280
     1
102
RTVSPost2010PropOp30
 70
     1
102
RTVSPost2010Prop31
280
     0
102
RTVSPost2010PropOp31
 70
     1
102
RTVSPost2010Prop32
280
     0
102
RTVSPost2010PropOp32
 70
     1
102
RTVSPost2010Prop33
280
     0
102
RTVSPost2010PropOp33
 70
     1
102
RTVSPost2010Prop34
280
     0
102
RTVSPost2010PropOp34
 70
     1
102
RTVSPost2010Prop35
280
     0
102
RTVSPost2010PropOp35
 70
     1
102
RTVSPost2010Prop36
280
     0
102
RTVSPost2010PropOp36
 70
     1
102
RTVSPost2010Prop37
 90
       50
102
RTVSPost2010PropOp37
 70
     1
102
RTVSPost2010Prop38
140
0.0
102
RTVSPost2010PropOp38
 70
     1
102
RTVSPost2010Prop39
140
1.0
102
RTVSPost2010PropOp39
 70
     1
102
RTVSPost2010Prop40
 90
        0
102
RTVSPost2010PropOp40
 70
     1
102
RTVSPost2010Prop41ColorIndex
 90
       18
102
RTVSPost2010Prop41ColorRGB
 90
        0
102
RTVSPost2010PropOp41
 70
     1
102
RTVSPost2010Prop42
 90
       50
102
RTVSPost2010PropOp42
 70
     1
102
RTVSPost2010Prop43
 90
        3
102
RTVSPost2010PropOp43
 70
     1
102
RTVSPost2010Prop44ColorIndex
 90
        5
102
RTVSPost2010Prop44ColorRGB
 90
      255
102
RTVSPost2010PropOp44
 70
     1
102
RTVSPost2010Prop45
280
     0
102
RTVSPost2010PropOp45
 70
     1
102
RTVSPost2010Prop46
 90
       50
102
RTVSPost2010PropOp46
 70
     1
102
RTVSPost2010Prop47
 90
       50
102
RTVSPost2010PropOp47
 70
     1
102
RTVSPost2010Prop48
 90
       50
102
RTVSPost2010PropOp48
 70
     1
102
RTVSPost2010Prop49
280
     0
102
RTVSPost2010PropOp49
 70
     1
102
RTVSPost2010Prop50
 90
       50
102
RTVSPost2010PropOp50
 70
     1
102
RTVSPost2010Prop51ColorIndex
 90
      256
102
RTVSPost2010Prop51ColorRGB
 90
-16777216
102
RTVSPost2010PropOp51
 70
     0
102
RTVSPost2010Prop52
140
1.0
102
RTVSPost2010PropOp52
 70
     0
102
RTVSPost2010Prop53
 90
        2
102
RTVSPost2010PropOp53
 70
     1
102
RTVSPost2010Prop54
  1
strokes_ogs.tif
102
RTVSPost2010PropOp54
 70
     1
102
RTVSPost2010Prop55
280
     0
102
RTVSPost2010PropOp55
 70
     1
102
RTVSPost2010Prop56
140
1.0
102
RTVSPost2010PropOp56
 70
     1
102
RTVSPost2010Prop57
140
1.0
102
RTVSPost2010PropOp57
 70
     1
102
RTVSPropertyOp0
 70
     1
102
RTVSPropertyOp1
 70
     1
102
RTVSPropertyOp2
 70
     1
102
RTVSPropertyOp3
 70
     1
102
RTVSPropertyOp4
 70
     1
102
RTVSPropertyOp5
 70
     1
102
RTVSPropertyOp6
 70
     1
102
RTVSPropertyOp7
 70
     1
102
RTVSPropertyOp8
 70
     1
102
RTVSPropertyOp9
 70
     1
102
RTVSPropertyOp10
 70
     1
102
RTVSPropertyOp11
 70
     1
102
RTVSPropertyOp12
 70
     1
102
RTVSPropertyOp13
 70
     1
102
RTVSPropertyOp14
 70
     1
102
RTVSPropertyOp15
 70
     1
102
RTVSPropertyOp16
 70
     1
102
RTVSPropertyOp17
 70
     1
102
RTVSPropertyOp18
 70
     1
102
RTVSPropertyOp19
 70
     1
102
RTVSPropertyOp20
 70
     1
102
RTVSPropertyOp21
 70
     1
102
RTVSPropertyOp22
 70
     1
102
RTVSPropertyOp23
 70
     1
102
RTVSPropertyOp24
 70
     1
102
RTVSPropertyOp25
 70
     1
102
RTVSPropertyOp26
 70
     1
102
RTVSPropertyOp27
 70
     1
102
RTVSPropertyOp28
 70
     1
102
RTVSPropertyOp29
 70
     1
102
RTVSPropertyOp30
 70
     1
102
RTVSPropertyOp31
 70
     1
102
RTVSPropertyOp32
 70
     1
102
RTVSPropertyOp33
 70
     1
102
RTVSPropertyOp34
 70
     1
102
RTVSPropertyOp35
 70
     1
102
RTVSPropertyOp36
 70
     1
102
RTVSPropertyOp37
 70
     1
102
RTVSPropertyOp38
 70
     1
102
RTVSPropertyOp39
 70
     1
102
RTVSPropertyOp40
 70
     1
102
RTVSPropertyOp41
 70
     1
102
RTVSPropertyOp42
 70
     1
102
RTVSPropertyOp43
 70
     1
102
RTVSPropertyOp44
 70
     1
102
RTVSPropertyOp45
 70
     1
102
RTVSPropertyOp46
 70
     1
102
RTVSPropertyOp47
 70
     1
102
RTVSPropertyOp48
 70
     1
102
RTVSPropertyOp49
 70
     1
102
RTVSPropertyOp50
 70
     1
102
RTVSPropertyOp51
 70
     0
102
RTVSPropertyOp52
 70
     0
102
RTVSPropertyOp53
 70
     1
102
RTVSPropertyOp54
 70
     1
102
RTVSPropertyOp55
 70
     1
102
RTVSPropertyOp56
 70
     1
102
RTVSPropertyOp57
 70
     1
102
RTVSPropertyOp58
 70
     1
102
RTVSPropertyOp59
 70
     1
102
RTVSPropertyOp60
 70
     1
102
RTVSPropertyOp61
 70
     1
102
RTVSPropertyOp62
 70
     1
  0
XRECORD
  5
15BE
102
{ACAD_REACTORS
330
15BD
102
}
330
15BD
100
AcDbXrecord
280
     1
102
RTVSPost2010Prop28
280
     0
102
RTVSPost2010PropOp28
 70
     1
102
RTVSPost2010Prop29
280
     1
102
RTVSPost2010PropOp29
 70
     1
102
RTVSPost2010Prop30
280
     1
102
RTVSPost2010PropOp30
 70
     1
102
RTVSPost2010Prop31
280
     0
102
RTVSPost2010PropOp31
 70
     1
102
RTVSPost2010Prop32
280
     0
102
RTVSPost2010PropOp32
 70
     1
102
RTVSPost2010Prop33
280
     0
102
RTVSPost2010PropOp33
 70
     1
102
RTVSPost2010Prop34
280
     0
102
RTVSPost2010PropOp34
 70
     1
102
RTVSPost2010Prop35
280
     0
102
RTVSPost2010PropOp35
 70
     1
102
RTVSPost2010Prop36
280
     0
102
RTVSPost2010PropOp36
 70
     1
102
RTVSPost2010Prop37
 90
       50
102
RTVSPost2010PropOp37
 70
     1
102
RTVSPost2010Prop38
140
0.0
102
RTVSPost2010PropOp38
 70
     1
102
RTVSPost2010Prop39
140
1.0
102
RTVSPost2010PropOp39
 70
     1
102
RTVSPost2010Prop40
 90
        0
102
RTVSPost2010PropOp40
 70
     1
102
RTVSPost2010Prop41ColorIndex
 90
       18
102
RTVSPost2010Prop41ColorRGB
 90
        0
102
RTVSPost2010PropOp41
 70
     1
102
RTVSPost2010Prop42
 90
       50
102
RTVSPost2010PropOp42
 70
     1
102
RTVSPost2010Prop43
 90
        3
102
RTVSPost2010PropOp43
 70
     1
102
RTVSPost2010Prop44ColorIndex
 90
        5
102
RTVSPost2010Prop44ColorRGB
 90
      255
102
RTVSPost2010PropOp44
 70
     1
102
RTVSPost2010Prop45
280
     0
102
RTVSPost2010PropOp45
 70
     1
102
RTVSPost2010Prop46
 90
       50
102
RTVSPost2010PropOp46
 70
     1
102
RTVSPost2010Prop47
 90
       50
102
RTVSPost2010PropOp47
 70
     1
102
RTVSPost2010Prop48
 90
       50
102
RTVSPost2010PropOp48
 70
     1
102
RTVSPost2010Prop49
280
     0
102
RTVSPost2010PropOp49
 70
     1
102
RTVSPost2010Prop50
 90
       50
102
RTVSPost2010PropOp50
 70
     1
102
RTVSPost2010Prop51ColorIndex
 90
      256
102
RTVSPost2010Prop51ColorRGB
 90
-16777216
102
RTVSPost2010PropOp51
 70
     0
102
RTVSPost2010Prop52
140
1.0
102
RTVSPost2010PropOp52
 70
     0
102
RTVSPost2010Prop53
 90
        2
102
RTVSPost2010PropOp53
 70
     1
102
RTVSPost2010Prop54
  1
strokes_ogs.tif
102
RTVSPost2010PropOp54
 70
     1
102
RTVSPost2010Prop55
280
     0
102
RTVSPost2010PropOp55
 70
     1
102
RTVSPost2010Prop56
140
1.0
102
RTVSPost2010PropOp56
 70
     1
102
RTVSPost2010Prop57
140
1.0
102
RTVSPost2010PropOp57
 70
     1
102
RTVSPropertyOp0
 70
     1
102
RTVSPropertyOp1
 70
     1
102
RTVSPropertyOp2
 70
     1
102
RTVSPropertyOp3
 70
     1
102
RTVSPropertyOp4
 70
     1
102
RTVSPropertyOp5
 70
     1
102
RTVSPropertyOp6
 70
     1
102
RTVSPropertyOp7
 70
     1
102
RTVSPropertyOp8
 70
     1
102
RTVSPropertyOp9
 70
     1
102
RTVSPropertyOp10
 70
     1
102
RTVSPropertyOp11
 70
     1
102
RTVSPropertyOp12
 70
     1
102
RTVSPropertyOp13
 70
     1
102
RTVSPropertyOp14
 70
     1
102
RTVSPropertyOp15
 70
     1
102
RTVSPropertyOp16
 70
     1
102
RTVSPropertyOp17
 70
     1
102
RTVSPropertyOp18
 70
     1
102
RTVSPropertyOp19
 70
     1
102
RTVSPropertyOp20
 70
     1
102
RTVSPropertyOp21
 70
     1
102
RTVSPropertyOp22
 70
     1
102
RTVSPropertyOp23
 70
     1
102
RTVSPropertyOp24
 70
     1
102
RTVSPropertyOp25
 70
     1
102
RTVSPropertyOp26
 70
     1
102
RTVSPropertyOp27
 70
     1
102
RTVSPropertyOp28
 70
     1
102
RTVSPropertyOp29
 70
     1
102
RTVSPropertyOp30
 70
     1
102
RTVSPropertyOp31
 70
     1
102
RTVSPropertyOp32
 70
     1
102
RTVSPropertyOp33
 70
     1
102
RTVSPropertyOp34
 70
     1
102
RTVSPropertyOp35
 70
     1
102
RTVSPropertyOp36
 70
     1
102
RTVSPropertyOp37
 70
     1
102
RTVSPropertyOp38
 70
     1
102
RTVSPropertyOp39
 70
     1
102
RTVSPropertyOp40
 70
     1
102
RTVSPropertyOp41
 70
     1
102
RTVSPropertyOp42
 70
     1
102
RTVSPropertyOp43
 70
     1
102
RTVSPropertyOp44
 70
     1
102
RTVSPropertyOp45
 70
     1
102
RTVSPropertyOp46
 70
     1
102
RTVSPropertyOp47
 70
     1
102
RTVSPropertyOp48
 70
     1
102
RTVSPropertyOp49
 70
     1
102
RTVSPropertyOp50
 70
     1
102
RTVSPropertyOp51
 70
     0
102
RTVSPropertyOp52
 70
     0
102
RTVSPropertyOp53
 70
     1
102
RTVSPropertyOp54
 70
     1
102
RTVSPropertyOp55
 70
     1
102
RTVSPropertyOp56
 70
     1
102
RTVSPropertyOp57
 70
     1
102
RTVSPropertyOp58
 70
     1
102
RTVSPropertyOp59
 70
     1
102
RTVSPropertyOp60
 70
     1
102
RTVSPropertyOp61
 70
     1
102
RTVSPropertyOp62
 70
     1
  0
XRECORD
  5
15C0
102
{ACAD_REACTORS
330
15BF
102
}
330
15BF
100
AcDbXrecord
280
     1
102
RTVSPost2010Prop28
280
     0
102
RTVSPost2010PropOp28
 70
     1
102
RTVSPost2010Prop29
280
     1
102
RTVSPost2010PropOp29
 70
     1
102
RTVSPost2010Prop30
280
     1
102
RTVSPost2010PropOp30
 70
     1
102
RTVSPost2010Prop31
280
     0
102
RTVSPost2010PropOp31
 70
     1
102
RTVSPost2010Prop32
280
     0
102
RTVSPost2010PropOp32
 70
     1
102
RTVSPost2010Prop33
280
     0
102
RTVSPost2010PropOp33
 70
     1
102
RTVSPost2010Prop34
280
     0
102
RTVSPost2010PropOp34
 70
     1
102
RTVSPost2010Prop35
280
     0
102
RTVSPost2010PropOp35
 70
     1
102
RTVSPost2010Prop36
280
     0
102
RTVSPost2010PropOp36
 70
     1
102
RTVSPost2010Prop37
 90
       50
102
RTVSPost2010PropOp37
 70
     1
102
RTVSPost2010Prop38
140
0.0
102
RTVSPost2010PropOp38
 70
     1
102
RTVSPost2010Prop39
140
1.0
102
RTVSPost2010PropOp39
 70
     1
102
RTVSPost2010Prop40
 90
        0
102
RTVSPost2010PropOp40
 70
     1
102
RTVSPost2010Prop41ColorIndex
 90
       18
102
RTVSPost2010Prop41ColorRGB
 90
        0
102
RTVSPost2010PropOp41
 70
     1
102
RTVSPost2010Prop42
 90
       50
102
RTVSPost2010PropOp42
 70
     1
102
RTVSPost2010Prop43
 90
        3
102
RTVSPost2010PropOp43
 70
     1
102
RTVSPost2010Prop44ColorIndex
 90
        5
102
RTVSPost2010Prop44ColorRGB
 90
      255
102
RTVSPost2010PropOp44
 70
     1
102
RTVSPost2010Prop45
280
     0
102
RTVSPost2010PropOp45
 70
     1
102
RTVSPost2010Prop46
 90
       50
102
RTVSPost2010PropOp46
 70
     1
102
RTVSPost2010Prop47
 90
       50
102
RTVSPost2010PropOp47
 70
     1
102
RTVSPost2010Prop48
 90
       50
102
RTVSPost2010PropOp48
 70
     1
102
RTVSPost2010Prop49
280
     0
102
RTVSPost2010PropOp49
 70
     1
102
RTVSPost2010Prop50
 90
       50
102
RTVSPost2010PropOp50
 70
     1
102
RTVSPost2010Prop51ColorIndex
 90
      256
102
RTVSPost2010Prop51ColorRGB
 90
-16777216
102
RTVSPost2010PropOp51
 70
     0
102
RTVSPost2010Prop52
140
1.0
102
RTVSPost2010PropOp52
 70
     0
102
RTVSPost2010Prop53
 90
        2
102
RTVSPost2010PropOp53
 70
     1
102
RTVSPost2010Prop54
  1
strokes_ogs.tif
102
RTVSPost2010PropOp54
 70
     1
102
RTVSPost2010Prop55
280
     0
102
RTVSPost2010PropOp55
 70
     1
102
RTVSPost2010Prop56
140
1.0
102
RTVSPost2010PropOp56
 70
     1
102
RTVSPost2010Prop57
140
1.0
102
RTVSPost2010PropOp57
 70
     1
102
RTVSPropertyOp0
 70
     1
102
RTVSPropertyOp1
 70
     1
102
RTVSPropertyOp2
 70
     1
102
RTVSPropertyOp3
 70
     1
102
RTVSPropertyOp4
 70
     1
102
RTVSPropertyOp5
 70
     1
102
RTVSPropertyOp6
 70
     1
102
RTVSPropertyOp7
 70
     1
102
RTVSPropertyOp8
 70
     1
102
RTVSPropertyOp9
 70
     1
102
RTVSPropertyOp10
 70
     1
102
RTVSPropertyOp11
 70
     1
102
RTVSPropertyOp12
 70
     1
102
RTVSPropertyOp13
 70
     1
102
RTVSPropertyOp14
 70
     1
102
RTVSPropertyOp15
 70
     1
102
RTVSPropertyOp16
 70
     1
102
RTVSPropertyOp17
 70
     1
102
RTVSPropertyOp18
 70
     1
102
RTVSPropertyOp19
 70
     1
102
RTVSPropertyOp20
 70
     1
102
RTVSPropertyOp21
 70
     1
102
RTVSPropertyOp22
 70
     1
102
RTVSPropertyOp23
 70
     1
102
RTVSPropertyOp24
 70
     1
102
RTVSPropertyOp25
 70
     1
102
RTVSPropertyOp26
 70
     1
102
RTVSPropertyOp27
 70
     1
102
RTVSPropertyOp28
 70
     1
102
RTVSPropertyOp29
 70
     1
102
RTVSPropertyOp30
 70
     1
102
RTVSPropertyOp31
 70
     1
102
RTVSPropertyOp32
 70
     1
102
RTVSPropertyOp33
 70
     1
102
RTVSPropertyOp34
 70
     1
102
RTVSPropertyOp35
 70
     1
102
RTVSPropertyOp36
 70
     1
102
RTVSPropertyOp37
 70
     1
102
RTVSPropertyOp38
 70
     1
102
RTVSPropertyOp39
 70
     1
102
RTVSPropertyOp40
 70
     1
102
RTVSPropertyOp41
 70
     1
102
RTVSPropertyOp42
 70
     1
102
RTVSPropertyOp43
 70
     1
102
RTVSPropertyOp44
 70
     1
102
RTVSPropertyOp45
 70
     1
102
RTVSPropertyOp46
 70
     1
102
RTVSPropertyOp47
 70
     1
102
RTVSPropertyOp48
 70
     1
102
RTVSPropertyOp49
 70
     1
102
RTVSPropertyOp50
 70
     1
102
RTVSPropertyOp51
 70
     0
102
RTVSPropertyOp52
 70
     0
102
RTVSPropertyOp53
 70
     1
102
RTVSPropertyOp54
 70
     1
102
RTVSPropertyOp55
 70
     1
102
RTVSPropertyOp56
 70
     1
102
RTVSPropertyOp57
 70
     1
102
RTVSPropertyOp58
 70
     1
102
RTVSPropertyOp59
 70
     1
102
RTVSPropertyOp60
 70
     1
102
RTVSPropertyOp61
 70
     1
102
RTVSPropertyOp62
 70
     1
  0
XRECORD
  5
15DC
102
{ACAD_REACTORS
330
15DB
102
}
330
15DB
100
AcDbXrecord
280
     1
102
RTVSPost2010Prop28
280
     0
102
RTVSPost2010PropOp28
 70
     1
102
RTVSPost2010Prop29
280
     1
102
RTVSPost2010PropOp29
 70
     1
102
RTVSPost2010Prop30
280
     1
102
RTVSPost2010PropOp30
 70
     1
102
RTVSPost2010Prop31
280
     0
102
RTVSPost2010PropOp31
 70
     1
102
RTVSPost2010Prop32
280
     0
102
RTVSPost2010PropOp32
 70
     1
102
RTVSPost2010Prop33
280
     0
102
RTVSPost2010PropOp33
 70
     1
102
RTVSPost2010Prop34
280
     0
102
RTVSPost2010PropOp34
 70
     1
102
RTVSPost2010Prop35
280
     0
102
RTVSPost2010PropOp35
 70
     1
102
RTVSPost2010Prop36
280
     0
102
RTVSPost2010PropOp36
 70
     1
102
RTVSPost2010Prop37
 90
       50
102
RTVSPost2010PropOp37
 70
     1
102
RTVSPost2010Prop38
140
0.0
102
RTVSPost2010PropOp38
 70
     1
102
RTVSPost2010Prop39
140
1.0
102
RTVSPost2010PropOp39
 70
     1
102
RTVSPost2010Prop40
 90
        0
102
RTVSPost2010PropOp40
 70
     1
102
RTVSPost2010Prop41ColorIndex
 90
       18
102
RTVSPost2010Prop41ColorRGB
 90
        0
102
RTVSPost2010PropOp41
 70
     1
102
RTVSPost2010Prop42
 90
       50
102
RTVSPost2010PropOp42
 70
     1
102
RTVSPost2010Prop43
 90
        3
102
RTVSPost2010PropOp43
 70
     1
102
RTVSPost2010Prop44ColorIndex
 90
        5
102
RTVSPost2010Prop44ColorRGB
 90
      255
102
RTVSPost2010PropOp44
 70
     1
102
RTVSPost2010Prop45
280
     0
102
RTVSPost2010PropOp45
 70
     1
102
RTVSPost2010Prop46
 90
       50
102
RTVSPost2010PropOp46
 70
     1
102
RTVSPost2010Prop47
 90
       50
102
RTVSPost2010PropOp47
 70
     1
102
RTVSPost2010Prop48
 90
       50
102
RTVSPost2010PropOp48
 70
     1
102
RTVSPost2010Prop49
280
     0
102
RTVSPost2010PropOp49
 70
     1
102
RTVSPost2010Prop50
 90
       50
102
RTVSPost2010PropOp50
 70
     1
102
RTVSPost2010Prop51ColorIndex
 90
      256
102
RTVSPost2010Prop51ColorRGB
 90
-16777216
102
RTVSPost2010PropOp51
 70
     0
102
RTVSPost2010Prop52
140
1.0
102
RTVSPost2010PropOp52
 70
     0
102
RTVSPost2010Prop53
 90
        2
102
RTVSPost2010PropOp53
 70
     1
102
RTVSPost2010Prop54
  1
strokes_ogs.tif
102
RTVSPost2010PropOp54
 70
     1
102
RTVSPost2010Prop55
280
     0
102
RTVSPost2010PropOp55
 70
     1
102
RTVSPost2010Prop56
140
1.0
102
RTVSPost2010PropOp56
 70
     1
102
RTVSPost2010Prop57
140
1.0
102
RTVSPost2010PropOp57
 70
     1
102
RTVSPropertyOp0
 70
     1
102
RTVSPropertyOp1
 70
     1
102
RTVSPropertyOp2
 70
     1
102
RTVSPropertyOp3
 70
     1
102
RTVSPropertyOp4
 70
     1
102
RTVSPropertyOp5
 70
     1
102
RTVSPropertyOp6
 70
     1
102
RTVSPropertyOp7
 70
     1
102
RTVSPropertyOp8
 70
     1
102
RTVSPropertyOp9
 70
     1
102
RTVSPropertyOp10
 70
     1
102
RTVSPropertyOp11
 70
     1
102
RTVSPropertyOp12
 70
     1
102
RTVSPropertyOp13
 70
     1
102
RTVSPropertyOp14
 70
     1
102
RTVSPropertyOp15
 70
     1
102
RTVSPropertyOp16
 70
     1
102
RTVSPropertyOp17
 70
     1
102
RTVSPropertyOp18
 70
     1
102
RTVSPropertyOp19
 70
     1
102
RTVSPropertyOp20
 70
     1
102
RTVSPropertyOp21
 70
     1
102
RTVSPropertyOp22
 70
     1
102
RTVSPropertyOp23
 70
     1
102
RTVSPropertyOp24
 70
     1
102
RTVSPropertyOp25
 70
     1
102
RTVSPropertyOp26
 70
     1
102
RTVSPropertyOp27
 70
     1
102
RTVSPropertyOp28
 70
     1
102
RTVSPropertyOp29
 70
     1
102
RTVSPropertyOp30
 70
     1
102
RTVSPropertyOp31
 70
     1
102
RTVSPropertyOp32
 70
     1
102
RTVSPropertyOp33
 70
     1
102
RTVSPropertyOp34
 70
     1
102
RTVSPropertyOp35
 70
     1
102
RTVSPropertyOp36
 70
     1
102
RTVSPropertyOp37
 70
     1
102
RTVSPropertyOp38
 70
     1
102
RTVSPropertyOp39
 70
     1
102
RTVSPropertyOp40
 70
     1
102
RTVSPropertyOp41
 70
     1
102
RTVSPropertyOp42
 70
     1
102
RTVSPropertyOp43
 70
     1
102
RTVSPropertyOp44
 70
     1
102
RTVSPropertyOp45
 70
     1
102
RTVSPropertyOp46
 70
     1
102
RTVSPropertyOp47
 70
     1
102
RTVSPropertyOp48
 70
     1
102
RTVSPropertyOp49
 70
     1
102
RTVSPropertyOp50
 70
     1
102
RTVSPropertyOp51
 70
     0
102
RTVSPropertyOp52
 70
     0
102
RTVSPropertyOp53
 70
     1
102
RTVSPropertyOp54
 70
     1
102
RTVSPropertyOp55
 70
     1
102
RTVSPropertyOp56
 70
     1
102
RTVSPropertyOp57
 70
     1
102
RTVSPropertyOp58
 70
     1
102
RTVSPropertyOp59
 70
     1
102
RTVSPropertyOp60
 70
     1
102
RTVSPropertyOp61
 70
     1
102
RTVSPropertyOp62
 70
     1
  0
XRECORD
  5
15E8
102
{ACAD_REACTORS
330
15E7
102
}
330
15E7
100
AcDbXrecord
280
     1
102
RTVSPost2010Prop28
280
     0
102
RTVSPost2010PropOp28
 70
     1
102
RTVSPost2010Prop29
280
     1
102
RTVSPost2010PropOp29
 70
     1
102
RTVSPost2010Prop30
280
     1
102
RTVSPost2010PropOp30
 70
     1
102
RTVSPost2010Prop31
280
     0
102
RTVSPost2010PropOp31
 70
     1
102
RTVSPost2010Prop32
280
     0
102
RTVSPost2010PropOp32
 70
     1
102
RTVSPost2010Prop33
280
     0
102
RTVSPost2010PropOp33
 70
     1
102
RTVSPost2010Prop34
280
     0
102
RTVSPost2010PropOp34
 70
     1
102
RTVSPost2010Prop35
280
     0
102
RTVSPost2010PropOp35
 70
     1
102
RTVSPost2010Prop36
280
     0
102
RTVSPost2010PropOp36
 70
     1
102
RTVSPost2010Prop37
 90
       50
102
RTVSPost2010PropOp37
 70
     0
102
RTVSPost2010Prop38
140
0.0
102
RTVSPost2010PropOp38
 70
     0
102
RTVSPost2010Prop39
140
1.0
102
RTVSPost2010PropOp39
 70
     0
102
RTVSPost2010Prop40
 90
        0
102
RTVSPost2010PropOp40
 70
     0
102
RTVSPost2010Prop41ColorIndex
 90
       18
102
RTVSPost2010Prop41ColorRGB
 90
        0
102
RTVSPost2010PropOp41
 70
     0
102
RTVSPost2010Prop42
 90
       50
102
RTVSPost2010PropOp42
 70
     0
102
RTVSPost2010Prop43
 90
        3
102
RTVSPost2010PropOp43
 70
     0
102
RTVSPost2010Prop44ColorIndex
 90
        5
102
RTVSPost2010Prop44ColorRGB
 90
      255
102
RTVSPost2010PropOp44
 70
     0
102
RTVSPost2010Prop45
280
     0
102
RTVSPost2010PropOp45
 70
     1
102
RTVSPost2010Prop46
 90
       50
102
RTVSPost2010PropOp46
 70
     0
102
RTVSPost2010Prop47
 90
       50
102
RTVSPost2010PropOp47
 70
     0
102
RTVSPost2010Prop48
 90
       50
102
RTVSPost2010PropOp48
 70
     0
102
RTVSPost2010Prop49
280
     0
102
RTVSPost2010PropOp49
 70
     1
102
RTVSPost2010Prop50
 90
       50
102
RTVSPost2010PropOp50
 70
     0
102
RTVSPost2010Prop51ColorIndex
 90
      256
102
RTVSPost2010Prop51ColorRGB
 90
-16777216
102
RTVSPost2010PropOp51
 70
     0
102
RTVSPost2010Prop52
140
1.0
102
RTVSPost2010PropOp52
 70
     0
102
RTVSPost2010Prop53
 90
        2
102
RTVSPost2010PropOp53
 70
     0
102
RTVSPost2010Prop54
  1
strokes_ogs.tif
102
RTVSPost2010PropOp54
 70
     0
102
RTVSPost2010Prop55
280
     0
102
RTVSPost2010PropOp55
 70
     1
102
RTVSPost2010Prop56
140
1.0
102
RTVSPost2010PropOp56
 70
     0
102
RTVSPost2010Prop57
140
1.0
102
RTVSPost2010PropOp57
 70
     0
102
RTVSPropertyOp0
 70
     0
102
RTVSPropertyOp1
 70
     0
102
RTVSPropertyOp2
 70
     0
102
RTVSPropertyOp3
 70
     0
102
RTVSPropertyOp4
 70
     0
102
RTVSPropertyOp5
 70
     0
102
RTVSPropertyOp6
 70
     0
102
RTVSPropertyOp7
 70
     0
102
RTVSPropertyOp8
 70
     0
102
RTVSPropertyOp9
 70
     0
102
RTVSPropertyOp10
 70
     0
102
RTVSPropertyOp11
 70
     0
102
RTVSPropertyOp12
 70
     0
102
RTVSPropertyOp13
 70
     0
102
RTVSPropertyOp14
 70
     2
102
RTVSPropertyOp15
 70
     0
102
RTVSPropertyOp16
 70
     0
102
RTVSPropertyOp17
 70
     0
102
RTVSPropertyOp18
 70
     0
102
RTVSPropertyOp19
 70
     0
102
RTVSPropertyOp20
 70
     0
102
RTVSPropertyOp21
 70
     0
102
RTVSPropertyOp22
 70
     0
102
RTVSPropertyOp23
 70
     0
102
RTVSPropertyOp24
 70
     0
102
RTVSPropertyOp25
 70
     0
102
RTVSPropertyOp26
 70
     0
102
RTVSPropertyOp27
 70
     0
102
RTVSPropertyOp28
 70
     1
102
RTVSPropertyOp29
 70
     1
102
RTVSPropertyOp30
 70
     1
102
RTVSPropertyOp31
 70
     1
102
RTVSPropertyOp32
 70
     1
102
RTVSPropertyOp33
 70
     1
102
RTVSPropertyOp34
 70
     1
102
RTVSPropertyOp35
 70
     1
102
RTVSPropertyOp36
 70
     1
102
RTVSPropertyOp37
 70
     0
102
RTVSPropertyOp38
 70
     0
102
RTVSPropertyOp39
 70
     0
102
RTVSPropertyOp40
 70
     0
102
RTVSPropertyOp41
 70
     0
102
RTVSPropertyOp42
 70
     0
102
RTVSPropertyOp43
 70
     0
102
RTVSPropertyOp44
 70
     0
102
RTVSPropertyOp45
 70
     1
102
RTVSPropertyOp46
 70
     0
102
RTVSPropertyOp47
 70
     0
102
RTVSPropertyOp48
 70
     0
102
RTVSPropertyOp49
 70
     1
102
RTVSPropertyOp50
 70
     0
102
RTVSPropertyOp51
 70
     0
102
RTVSPropertyOp52
 70
     0
102
RTVSPropertyOp53
 70
     0
102
RTVSPropertyOp54
 70
     0
102
RTVSPropertyOp55
 70
     1
102
RTVSPropertyOp56
 70
     0
102
RTVSPropertyOp57
 70
     0
102
RTVSPropertyOp58
 70
     0
102
RTVSPropertyOp59
 70
     0
102
RTVSPropertyOp60
 70
     0
102
RTVSPropertyOp61
 70
     0
102
RTVSPropertyOp62
 70
     0
  0
XRECORD
  5
15D4
102
{ACAD_REACTORS
330
15D3
102
}
330
15D3
100
AcDbXrecord
280
     1
102
RTVSPost2010Prop28
280
     0
102
RTVSPost2010PropOp28
 70
     1
102
RTVSPost2010Prop29
280
     1
102
RTVSPost2010PropOp29
 70
     1
102
RTVSPost2010Prop30
280
     1
102
RTVSPost2010PropOp30
 70
     1
102
RTVSPost2010Prop31
280
     0
102
RTVSPost2010PropOp31
 70
     1
102
RTVSPost2010Prop32
280
     0
102
RTVSPost2010PropOp32
 70
     1
102
RTVSPost2010Prop33
280
     0
102
RTVSPost2010PropOp33
 70
     1
102
RTVSPost2010Prop34
280
     0
102
RTVSPost2010PropOp34
 70
     1
102
RTVSPost2010Prop35
280
     0
102
RTVSPost2010PropOp35
 70
     1
102
RTVSPost2010Prop36
280
     0
102
RTVSPost2010PropOp36
 70
     1
102
RTVSPost2010Prop37
 90
       50
102
RTVSPost2010PropOp37
 70
     1
102
RTVSPost2010Prop38
140
0.0
102
RTVSPost2010PropOp38
 70
     1
102
RTVSPost2010Prop39
140
1.0
102
RTVSPost2010PropOp39
 70
     1
102
RTVSPost2010Prop40
 90
        0
102
RTVSPost2010PropOp40
 70
     1
102
RTVSPost2010Prop41ColorIndex
 90
       18
102
RTVSPost2010Prop41ColorRGB
 90
        0
102
RTVSPost2010PropOp41
 70
     1
102
RTVSPost2010Prop42
 90
       50
102
RTVSPost2010PropOp42
 70
     1
102
RTVSPost2010Prop43
 90
        3
102
RTVSPost2010PropOp43
 70
     1
102
RTVSPost2010Prop44ColorIndex
 90
        5
102
RTVSPost2010Prop44ColorRGB
 90
      255
102
RTVSPost2010PropOp44
 70
     1
102
RTVSPost2010Prop45
280
     0
102
RTVSPost2010PropOp45
 70
     1
102
RTVSPost2010Prop46
 90
       50
102
RTVSPost2010PropOp46
 70
     1
102
RTVSPost2010Prop47
 90
       50
102
RTVSPost2010PropOp47
 70
     1
102
RTVSPost2010Prop48
 90
       50
102
RTVSPost2010PropOp48
 70
     1
102
RTVSPost2010Prop49
280
     0
102
RTVSPost2010PropOp49
 70
     1
102
RTVSPost2010Prop50
 90
       50
102
RTVSPost2010PropOp50
 70
     1
102
RTVSPost2010Prop51ColorIndex
 90
      256
102
RTVSPost2010Prop51ColorRGB
 90
-16777216
102
RTVSPost2010PropOp51
 70
     0
102
RTVSPost2010Prop52
140
1.0
102
RTVSPost2010PropOp52
 70
     0
102
RTVSPost2010Prop53
 90
        2
102
RTVSPost2010PropOp53
 70
     1
102
RTVSPost2010Prop54
  1
strokes_ogs.tif
102
RTVSPost2010PropOp54
 70
     1
102
RTVSPost2010Prop55
280
     0
102
RTVSPost2010PropOp55
 70
     1
102
RTVSPost2010Prop56
140
1.0
102
RTVSPost2010PropOp56
 70
     1
102
RTVSPost2010Prop57
140
1.0
102
RTVSPost2010PropOp57
 70
     1
102
RTVSPropertyOp0
 70
     1
102
RTVSPropertyOp1
 70
     1
102
RTVSPropertyOp2
 70
     1
102
RTVSPropertyOp3
 70
     1
102
RTVSPropertyOp4
 70
     1
102
RTVSPropertyOp5
 70
     1
102
RTVSPropertyOp6
 70
     1
102
RTVSPropertyOp7
 70
     1
102
RTVSPropertyOp8
 70
     1
102
RTVSPropertyOp9
 70
     1
102
RTVSPropertyOp10
 70
     1
102
RTVSPropertyOp11
 70
     1
102
RTVSPropertyOp12
 70
     1
102
RTVSPropertyOp13
 70
     1
102
RTVSPropertyOp14
 70
     1
102
RTVSPropertyOp15
 70
     1
102
RTVSPropertyOp16
 70
     1
102
RTVSPropertyOp17
 70
     1
102
RTVSPropertyOp18
 70
     1
102
RTVSPropertyOp19
 70
     1
102
RTVSPropertyOp20
 70
     1
102
RTVSPropertyOp21
 70
     1
102
RTVSPropertyOp22
 70
     1
102
RTVSPropertyOp23
 70
     1
102
RTVSPropertyOp24
 70
     1
102
RTVSPropertyOp25
 70
     1
102
RTVSPropertyOp26
 70
     1
102
RTVSPropertyOp27
 70
     1
102
RTVSPropertyOp28
 70
     1
102
RTVSPropertyOp29
 70
     1
102
RTVSPropertyOp30
 70
     1
102
RTVSPropertyOp31
 70
     1
102
RTVSPropertyOp32
 70
     1
102
RTVSPropertyOp33
 70
     1
102
RTVSPropertyOp34
 70
     1
102
RTVSPropertyOp35
 70
     1
102
RTVSPropertyOp36
 70
     1
102
RTVSPropertyOp37
 70
     1
102
RTVSPropertyOp38
 70
     1
102
RTVSPropertyOp39
 70
     1
102
RTVSPropertyOp40
 70
     1
102
RTVSPropertyOp41
 70
     1
102
RTVSPropertyOp42
 70
     1
102
RTVSPropertyOp43
 70
     1
102
RTVSPropertyOp44
 70
     1
102
RTVSPropertyOp45
 70
     1
102
RTVSPropertyOp46
 70
     1
102
RTVSPropertyOp47
 70
     1
102
RTVSPropertyOp48
 70
     1
102
RTVSPropertyOp49
 70
     1
102
RTVSPropertyOp50
 70
     1
102
RTVSPropertyOp51
 70
     0
102
RTVSPropertyOp52
 70
     0
102
RTVSPropertyOp53
 70
     1
102
RTVSPropertyOp54
 70
     1
102
RTVSPropertyOp55
 70
     1
102
RTVSPropertyOp56
 70
     1
102
RTVSPropertyOp57
 70
     1
102
RTVSPropertyOp58
 70
     1
102
RTVSPropertyOp59
 70
     1
102
RTVSPropertyOp60
 70
     1
102
RTVSPropertyOp61
 70
     1
102
RTVSPropertyOp62
 70
     1
  0
XRECORD
  5
15EA
102
{ACAD_REACTORS
330
15E9
102
}
330
15E9
100
AcDbXrecord
280
     1
102
RTVSPost2010Prop28
280
     0
102
RTVSPost2010PropOp28
 70
     1
102
RTVSPost2010Prop29
280
     1
102
RTVSPost2010PropOp29
 70
     1
102
RTVSPost2010Prop30
280
     1
102
RTVSPost2010PropOp30
 70
     1
102
RTVSPost2010Prop31
280
     0
102
RTVSPost2010PropOp31
 70
     1
102
RTVSPost2010Prop32
280
     0
102
RTVSPost2010PropOp32
 70
     1
102
RTVSPost2010Prop33
280
     0
102
RTVSPost2010PropOp33
 70
     1
102
RTVSPost2010Prop34
280
     0
102
RTVSPost2010PropOp34
 70
     1
102
RTVSPost2010Prop35
280
     0
102
RTVSPost2010PropOp35
 70
     1
102
RTVSPost2010Prop36
280
     0
102
RTVSPost2010PropOp36
 70
     1
102
RTVSPost2010Prop37
 90
       50
102
RTVSPost2010PropOp37
 70
     0
102
RTVSPost2010Prop38
140
0.0
102
RTVSPost2010PropOp38
 70
     0
102
RTVSPost2010Prop39
140
1.0
102
RTVSPost2010PropOp39
 70
     0
102
RTVSPost2010Prop40
 90
        0
102
RTVSPost2010PropOp40
 70
     0
102
RTVSPost2010Prop41ColorIndex
 90
       18
102
RTVSPost2010Prop41ColorRGB
 90
        0
102
RTVSPost2010PropOp41
 70
     0
102
RTVSPost2010Prop42
 90
       50
102
RTVSPost2010PropOp42
 70
     0
102
RTVSPost2010Prop43
 90
        3
102
RTVSPost2010PropOp43
 70
     0
102
RTVSPost2010Prop44ColorIndex
 90
        5
102
RTVSPost2010Prop44ColorRGB
 90
      255
102
RTVSPost2010PropOp44
 70
     0
102
RTVSPost2010Prop45
280
     0
102
RTVSPost2010PropOp45
 70
     1
102
RTVSPost2010Prop46
 90
       50
102
RTVSPost2010PropOp46
 70
     0
102
RTVSPost2010Prop47
 90
       50
102
RTVSPost2010PropOp47
 70
     0
102
RTVSPost2010Prop48
 90
       50
102
RTVSPost2010PropOp48
 70
     0
102
RTVSPost2010Prop49
280
     0
102
RTVSPost2010PropOp49
 70
     1
102
RTVSPost2010Prop50
 90
       50
102
RTVSPost2010PropOp50
 70
     0
102
RTVSPost2010Prop51ColorIndex
 90
      256
102
RTVSPost2010Prop51ColorRGB
 90
-16777216
102
RTVSPost2010PropOp51
 70
     0
102
RTVSPost2010Prop52
140
1.0
102
RTVSPost2010PropOp52
 70
     0
102
RTVSPost2010Prop53
 90
        2
102
RTVSPost2010PropOp53
 70
     0
102
RTVSPost2010Prop54
  1
strokes_ogs.tif
102
RTVSPost2010PropOp54
 70
     0
102
RTVSPost2010Prop55
280
     0
102
RTVSPost2010PropOp55
 70
     1
102
RTVSPost2010Prop56
140
1.0
102
RTVSPost2010PropOp56
 70
     0
102
RTVSPost2010Prop57
140
1.0
102
RTVSPost2010PropOp57
 70
     0
102
RTVSPropertyOp0
 70
     0
102
RTVSPropertyOp1
 70
     0
102
RTVSPropertyOp2
 70
     0
102
RTVSPropertyOp3
 70
     0
102
RTVSPropertyOp4
 70
     0
102
RTVSPropertyOp5
 70
     0
102
RTVSPropertyOp6
 70
     0
102
RTVSPropertyOp7
 70
     0
102
RTVSPropertyOp8
 70
     0
102
RTVSPropertyOp9
 70
     0
102
RTVSPropertyOp10
 70
     0
102
RTVSPropertyOp11
 70
     0
102
RTVSPropertyOp12
 70
     0
102
RTVSPropertyOp13
 70
     0
102
RTVSPropertyOp14
 70
     2
102
RTVSPropertyOp15
 70
     0
102
RTVSPropertyOp16
 70
     0
102
RTVSPropertyOp17
 70
     0
102
RTVSPropertyOp18
 70
     0
102
RTVSPropertyOp19
 70
     0
102
RTVSPropertyOp20
 70
     0
102
RTVSPropertyOp21
 70
     0
102
RTVSPropertyOp22
 70
     0
102
RTVSPropertyOp23
 70
     0
102
RTVSPropertyOp24
 70
     0
102
RTVSPropertyOp25
 70
     0
102
RTVSPropertyOp26
 70
     0
102
RTVSPropertyOp27
 70
     0
102
RTVSPropertyOp28
 70
     1
102
RTVSPropertyOp29
 70
     1
102
RTVSPropertyOp30
 70
     1
102
RTVSPropertyOp31
 70
     1
102
RTVSPropertyOp32
 70
     1
102
RTVSPropertyOp33
 70
     1
102
RTVSPropertyOp34
 70
     1
102
RTVSPropertyOp35
 70
     1
102
RTVSPropertyOp36
 70
     1
102
RTVSPropertyOp37
 70
     0
102
RTVSPropertyOp38
 70
     0
102
RTVSPropertyOp39
 70
     0
102
RTVSPropertyOp40
 70
     0
102
RTVSPropertyOp41
 70
     0
102
RTVSPropertyOp42
 70
     0
102
RTVSPropertyOp43
 70
     0
102
RTVSPropertyOp44
 70
     0
102
RTVSPropertyOp45
 70
     1
102
RTVSPropertyOp46
 70
     0
102
RTVSPropertyOp47
 70
     0
102
RTVSPropertyOp48
 70
     0
102
RTVSPropertyOp49
 70
     1
102
RTVSPropertyOp50
 70
     0
102
RTVSPropertyOp51
 70
     0
102
RTVSPropertyOp52
 70
     0
102
RTVSPropertyOp53
 70
     0
102
RTVSPropertyOp54
 70
     0
102
RTVSPropertyOp55
 70
     1
102
RTVSPropertyOp56
 70
     0
102
RTVSPropertyOp57
 70
     0
102
RTVSPropertyOp58
 70
     0
102
RTVSPropertyOp59
 70
     0
102
RTVSPropertyOp60
 70
     0
102
RTVSPropertyOp61
 70
     0
102
RTVSPropertyOp62
 70
     0
  0
XRECORD
  5
15CC
102
{ACAD_REACTORS
330
15CB
102
}
330
15CB
100
AcDbXrecord
280
     1
102
RTVSPost2010Prop28
280
     0
102
RTVSPost2010PropOp28
 70
     1
102
RTVSPost2010Prop29
280
     1
102
RTVSPost2010PropOp29
 70
     1
102
RTVSPost2010Prop30
280
     1
102
RTVSPost2010PropOp30
 70
     1
102
RTVSPost2010Prop31
280
     0
102
RTVSPost2010PropOp31
 70
     1
102
RTVSPost2010Prop32
280
     0
102
RTVSPost2010PropOp32
 70
     1
102
RTVSPost2010Prop33
280
     0
102
RTVSPost2010PropOp33
 70
     1
102
RTVSPost2010Prop34
280
     0
102
RTVSPost2010PropOp34
 70
     1
102
RTVSPost2010Prop35
280
     0
102
RTVSPost2010PropOp35
 70
     1
102
RTVSPost2010Prop36
280
     0
102
RTVSPost2010PropOp36
 70
     1
102
RTVSPost2010Prop37
 90
       50
102
RTVSPost2010PropOp37
 70
     1
102
RTVSPost2010Prop38
140
0.0
102
RTVSPost2010PropOp38
 70
     1
102
RTVSPost2010Prop39
140
1.0
102
RTVSPost2010PropOp39
 70
     1
102
RTVSPost2010Prop40
 90
        0
102
RTVSPost2010PropOp40
 70
     1
102
RTVSPost2010Prop41ColorIndex
 90
       18
102
RTVSPost2010Prop41ColorRGB
 90
        0
102
RTVSPost2010PropOp41
 70
     1
102
RTVSPost2010Prop42
 90
       50
102
RTVSPost2010PropOp42
 70
     1
102
RTVSPost2010Prop43
 90
        3
102
RTVSPost2010PropOp43
 70
     1
102
RTVSPost2010Prop44ColorIndex
 90
        5
102
RTVSPost2010Prop44ColorRGB
 90
      255
102
RTVSPost2010PropOp44
 70
     1
102
RTVSPost2010Prop45
280
     0
102
RTVSPost2010PropOp45
 70
     1
102
RTVSPost2010Prop46
 90
       50
102
RTVSPost2010PropOp46
 70
     1
102
RTVSPost2010Prop47
 90
       50
102
RTVSPost2010PropOp47
 70
     1
102
RTVSPost2010Prop48
 90
       50
102
RTVSPost2010PropOp48
 70
     1
102
RTVSPost2010Prop49
280
     0
102
RTVSPost2010PropOp49
 70
     1
102
RTVSPost2010Prop50
 90
       50
102
RTVSPost2010PropOp50
 70
     1
102
RTVSPost2010Prop51ColorIndex
 90
      256
102
RTVSPost2010Prop51ColorRGB
 90
-16777216
102
RTVSPost2010PropOp51
 70
     0
102
RTVSPost2010Prop52
140
1.0
102
RTVSPost2010PropOp52
 70
     0
102
RTVSPost2010Prop53
 90
        2
102
RTVSPost2010PropOp53
 70
     1
102
RTVSPost2010Prop54
  1
strokes_ogs.tif
102
RTVSPost2010PropOp54
 70
     1
102
RTVSPost2010Prop55
280
     0
102
RTVSPost2010PropOp55
 70
     1
102
RTVSPost2010Prop56
140
1.0
102
RTVSPost2010PropOp56
 70
     1
102
RTVSPost2010Prop57
140
1.0
102
RTVSPost2010PropOp57
 70
     1
102
RTVSPropertyOp0
 70
     1
102
RTVSPropertyOp1
 70
     1
102
RTVSPropertyOp2
 70
     1
102
RTVSPropertyOp3
 70
     1
102
RTVSPropertyOp4
 70
     1
102
RTVSPropertyOp5
 70
     1
102
RTVSPropertyOp6
 70
     1
102
RTVSPropertyOp7
 70
     1
102
RTVSPropertyOp8
 70
     1
102
RTVSPropertyOp9
 70
     1
102
RTVSPropertyOp10
 70
     1
102
RTVSPropertyOp11
 70
     1
102
RTVSPropertyOp12
 70
     1
102
RTVSPropertyOp13
 70
     1
102
RTVSPropertyOp14
 70
     1
102
RTVSPropertyOp15
 70
     1
102
RTVSPropertyOp16
 70
     1
102
RTVSPropertyOp17
 70
     1
102
RTVSPropertyOp18
 70
     1
102
RTVSPropertyOp19
 70
     1
102
RTVSPropertyOp20
 70
     1
102
RTVSPropertyOp21
 70
     1
102
RTVSPropertyOp22
 70
     1
102
RTVSPropertyOp23
 70
     1
102
RTVSPropertyOp24
 70
     1
102
RTVSPropertyOp25
 70
     1
102
RTVSPropertyOp26
 70
     1
102
RTVSPropertyOp27
 70
     1
102
RTVSPropertyOp28
 70
     1
102
RTVSPropertyOp29
 70
     1
102
RTVSPropertyOp30
 70
     1
102
RTVSPropertyOp31
 70
     1
102
RTVSPropertyOp32
 70
     1
102
RTVSPropertyOp33
 70
     1
102
RTVSPropertyOp34
 70
     1
102
RTVSPropertyOp35
 70
     1
102
RTVSPropertyOp36
 70
     1
102
RTVSPropertyOp37
 70
     1
102
RTVSPropertyOp38
 70
     1
102
RTVSPropertyOp39
 70
     1
102
RTVSPropertyOp40
 70
     1
102
RTVSPropertyOp41
 70
     1
102
RTVSPropertyOp42
 70
     1
102
RTVSPropertyOp43
 70
     1
102
RTVSPropertyOp44
 70
     1
102
RTVSPropertyOp45
 70
     1
102
RTVSPropertyOp46
 70
     1
102
RTVSPropertyOp47
 70
     1
102
RTVSPropertyOp48
 70
     1
102
RTVSPropertyOp49
 70
     1
102
RTVSPropertyOp50
 70
     1
102
RTVSPropertyOp51
 70
     0
102
RTVSPropertyOp52
 70
     0
102
RTVSPropertyOp53
 70
     1
102
RTVSPropertyOp54
 70
     1
102
RTVSPropertyOp55
 70
     1
102
RTVSPropertyOp56
 70
     1
102
RTVSPropertyOp57
 70
     1
102
RTVSPropertyOp58
 70
     1
102
RTVSPropertyOp59
 70
     1
102
RTVSPropertyOp60
 70
     1
102
RTVSPropertyOp61
 70
     1
102
RTVSPropertyOp62
 70
     1
  0
XRECORD
  5
15E6
102
{ACAD_REACTORS
330
15E5
102
}
330
15E5
100
AcDbXrecord
280
     1
102
RTVSPost2010Prop28
280
     0
102
RTVSPost2010PropOp28
 70
     1
102
RTVSPost2010Prop29
280
     1
102
RTVSPost2010PropOp29
 70
     1
102
RTVSPost2010Prop30
280
     1
102
RTVSPost2010PropOp30
 70
     1
102
RTVSPost2010Prop31
280
     0
102
RTVSPost2010PropOp31
 70
     1
102
RTVSPost2010Prop32
280
     0
102
RTVSPost2010PropOp32
 70
     1
102
RTVSPost2010Prop33
280
     0
102
RTVSPost2010PropOp33
 70
     1
102
RTVSPost2010Prop34
280
     0
102
RTVSPost2010PropOp34
 70
     1
102
RTVSPost2010Prop35
280
     0
102
RTVSPost2010PropOp35
 70
     1
102
RTVSPost2010Prop36
280
     0
102
RTVSPost2010PropOp36
 70
     1
102
RTVSPost2010Prop37
 90
       50
102
RTVSPost2010PropOp37
 70
     1
102
RTVSPost2010Prop38
140
0.0
102
RTVSPost2010PropOp38
 70
     1
102
RTVSPost2010Prop39
140
1.0
102
RTVSPost2010PropOp39
 70
     1
102
RTVSPost2010Prop40
 90
        0
102
RTVSPost2010PropOp40
 70
     1
102
RTVSPost2010Prop41ColorIndex
 90
       18
102
RTVSPost2010Prop41ColorRGB
 90
        0
102
RTVSPost2010PropOp41
 70
     1
102
RTVSPost2010Prop42
 90
       50
102
RTVSPost2010PropOp42
 70
     1
102
RTVSPost2010Prop43
 90
        3
102
RTVSPost2010PropOp43
 70
     1
102
RTVSPost2010Prop44ColorIndex
 90
        5
102
RTVSPost2010Prop44ColorRGB
 90
      255
102
RTVSPost2010PropOp44
 70
     1
102
RTVSPost2010Prop45
280
     0
102
RTVSPost2010PropOp45
 70
     1
102
RTVSPost2010Prop46
 90
       50
102
RTVSPost2010PropOp46
 70
     1
102
RTVSPost2010Prop47
 90
       50
102
RTVSPost2010PropOp47
 70
     1
102
RTVSPost2010Prop48
 90
       50
102
RTVSPost2010PropOp48
 70
     1
102
RTVSPost2010Prop49
280
     0
102
RTVSPost2010PropOp49
 70
     1
102
RTVSPost2010Prop50
 90
       50
102
RTVSPost2010PropOp50
 70
     1
102
RTVSPost2010Prop51ColorIndex
 90
      256
102
RTVSPost2010Prop51ColorRGB
 90
-16777216
102
RTVSPost2010PropOp51
 70
     0
102
RTVSPost2010Prop52
140
1.0
102
RTVSPost2010PropOp52
 70
     0
102
RTVSPost2010Prop53
 90
        2
102
RTVSPost2010PropOp53
 70
     1
102
RTVSPost2010Prop54
  1
strokes_ogs.tif
102
RTVSPost2010PropOp54
 70
     1
102
RTVSPost2010Prop55
280
     0
102
RTVSPost2010PropOp55
 70
     1
102
RTVSPost2010Prop56
140
1.0
102
RTVSPost2010PropOp56
 70
     1
102
RTVSPost2010Prop57
140
1.0
102
RTVSPost2010PropOp57
 70
     1
102
RTVSPropertyOp0
 70
     1
102
RTVSPropertyOp1
 70
     1
102
RTVSPropertyOp2
 70
     1
102
RTVSPropertyOp3
 70
     1
102
RTVSPropertyOp4
 70
     1
102
RTVSPropertyOp5
 70
     1
102
RTVSPropertyOp6
 70
     1
102
RTVSPropertyOp7
 70
     1
102
RTVSPropertyOp8
 70
     1
102
RTVSPropertyOp9
 70
     1
102
RTVSPropertyOp10
 70
     1
102
RTVSPropertyOp11
 70
     1
102
RTVSPropertyOp12
 70
     1
102
RTVSPropertyOp13
 70
     1
102
RTVSPropertyOp14
 70
     1
102
RTVSPropertyOp15
 70
     1
102
RTVSPropertyOp16
 70
     1
102
RTVSPropertyOp17
 70
     1
102
RTVSPropertyOp18
 70
     1
102
RTVSPropertyOp19
 70
     1
102
RTVSPropertyOp20
 70
     1
102
RTVSPropertyOp21
 70
     1
102
RTVSPropertyOp22
 70
     1
102
RTVSPropertyOp23
 70
     1
102
RTVSPropertyOp24
 70
     1
102
RTVSPropertyOp25
 70
     1
102
RTVSPropertyOp26
 70
     1
102
RTVSPropertyOp27
 70
     1
102
RTVSPropertyOp28
 70
     1
102
RTVSPropertyOp29
 70
     1
102
RTVSPropertyOp30
 70
     1
102
RTVSPropertyOp31
 70
     1
102
RTVSPropertyOp32
 70
     1
102
RTVSPropertyOp33
 70
     1
102
RTVSPropertyOp34
 70
     1
102
RTVSPropertyOp35
 70
     1
102
RTVSPropertyOp36
 70
     1
102
RTVSPropertyOp37
 70
     1
102
RTVSPropertyOp38
 70
     1
102
RTVSPropertyOp39
 70
     1
102
RTVSPropertyOp40
 70
     1
102
RTVSPropertyOp41
 70
     1
102
RTVSPropertyOp42
 70
     1
102
RTVSPropertyOp43
 70
     1
102
RTVSPropertyOp44
 70
     1
102
RTVSPropertyOp45
 70
     1
102
RTVSPropertyOp46
 70
     1
102
RTVSPropertyOp47
 70
     1
102
RTVSPropertyOp48
 70
     1
102
RTVSPropertyOp49
 70
     1
102
RTVSPropertyOp50
 70
     1
102
RTVSPropertyOp51
 70
     0
102
RTVSPropertyOp52
 70
     0
102
RTVSPropertyOp53
 70
     1
102
RTVSPropertyOp54
 70
     1
102
RTVSPropertyOp55
 70
     1
102
RTVSPropertyOp56
 70
     1
102
RTVSPropertyOp57
 70
     1
102
RTVSPropertyOp58
 70
     1
102
RTVSPropertyOp59
 70
     1
102
RTVSPropertyOp60
 70
     1
102
RTVSPropertyOp61
 70
     1
102
RTVSPropertyOp62
 70
     1
  0
XRECORD
  5
15E4
102
{ACAD_REACTORS
330
15E3
102
}
330
15E3
100
AcDbXrecord
280
     1
102
RTVSPost2010Prop28
280
     0
102
RTVSPost2010PropOp28
 70
     1
102
RTVSPost2010Prop29
280
     1
102
RTVSPost2010PropOp29
 70
     1
102
RTVSPost2010Prop30
280
     1
102
RTVSPost2010PropOp30
 70
     1
102
RTVSPost2010Prop31
280
     0
102
RTVSPost2010PropOp31
 70
     1
102
RTVSPost2010Prop32
280
     0
102
RTVSPost2010PropOp32
 70
     1
102
RTVSPost2010Prop33
280
     0
102
RTVSPost2010PropOp33
 70
     1
102
RTVSPost2010Prop34
280
     0
102
RTVSPost2010PropOp34
 70
     1
102
RTVSPost2010Prop35
280
     0
102
RTVSPost2010PropOp35
 70
     1
102
RTVSPost2010Prop36
280
     0
102
RTVSPost2010PropOp36
 70
     1
102
RTVSPost2010Prop37
 90
       50
102
RTVSPost2010PropOp37
 70
     1
102
RTVSPost2010Prop38
140
0.0
102
RTVSPost2010PropOp38
 70
     1
102
RTVSPost2010Prop39
140
1.0
102
RTVSPost2010PropOp39
 70
     1
102
RTVSPost2010Prop40
 90
        0
102
RTVSPost2010PropOp40
 70
     1
102
RTVSPost2010Prop41ColorIndex
 90
       18
102
RTVSPost2010Prop41ColorRGB
 90
        0
102
RTVSPost2010PropOp41
 70
     1
102
RTVSPost2010Prop42
 90
       50
102
RTVSPost2010PropOp42
 70
     1
102
RTVSPost2010Prop43
 90
        3
102
RTVSPost2010PropOp43
 70
     1
102
RTVSPost2010Prop44ColorIndex
 90
        5
102
RTVSPost2010Prop44ColorRGB
 90
      255
102
RTVSPost2010PropOp44
 70
     1
102
RTVSPost2010Prop45
280
     0
102
RTVSPost2010PropOp45
 70
     1
102
RTVSPost2010Prop46
 90
       50
102
RTVSPost2010PropOp46
 70
     1
102
RTVSPost2010Prop47
 90
       50
102
RTVSPost2010PropOp47
 70
     1
102
RTVSPost2010Prop48
 90
       50
102
RTVSPost2010PropOp48
 70
     1
102
RTVSPost2010Prop49
280
     0
102
RTVSPost2010PropOp49
 70
     1
102
RTVSPost2010Prop50
 90
       50
102
RTVSPost2010PropOp50
 70
     1
102
RTVSPost2010Prop51ColorIndex
 90
      256
102
RTVSPost2010Prop51ColorRGB
 90
-16777216
102
RTVSPost2010PropOp51
 70
     0
102
RTVSPost2010Prop52
140
1.0
102
RTVSPost2010PropOp52
 70
     0
102
RTVSPost2010Prop53
 90
        2
102
RTVSPost2010PropOp53
 70
     1
102
RTVSPost2010Prop54
  1
strokes_ogs.tif
102
RTVSPost2010PropOp54
 70
     1
102
RTVSPost2010Prop55
280
     0
102
RTVSPost2010PropOp55
 70
     1
102
RTVSPost2010Prop56
140
1.0
102
RTVSPost2010PropOp56
 70
     1
102
RTVSPost2010Prop57
140
1.0
102
RTVSPost2010PropOp57
 70
     1
102
RTVSPropertyOp0
 70
     1
102
RTVSPropertyOp1
 70
     1
102
RTVSPropertyOp2
 70
     1
102
RTVSPropertyOp3
 70
     1
102
RTVSPropertyOp4
 70
     1
102
RTVSPropertyOp5
 70
     1
102
RTVSPropertyOp6
 70
     1
102
RTVSPropertyOp7
 70
     1
102
RTVSPropertyOp8
 70
     1
102
RTVSPropertyOp9
 70
     1
102
RTVSPropertyOp10
 70
     1
102
RTVSPropertyOp11
 70
     1
102
RTVSPropertyOp12
 70
     1
102
RTVSPropertyOp13
 70
     1
102
RTVSPropertyOp14
 70
     1
102
RTVSPropertyOp15
 70
     1
102
RTVSPropertyOp16
 70
     1
102
RTVSPropertyOp17
 70
     1
102
RTVSPropertyOp18
 70
     1
102
RTVSPropertyOp19
 70
     1
102
RTVSPropertyOp20
 70
     1
102
RTVSPropertyOp21
 70
     1
102
RTVSPropertyOp22
 70
     1
102
RTVSPropertyOp23
 70
     1
102
RTVSPropertyOp24
 70
     1
102
RTVSPropertyOp25
 70
     1
102
RTVSPropertyOp26
 70
     1
102
RTVSPropertyOp27
 70
     1
102
RTVSPropertyOp28
 70
     1
102
RTVSPropertyOp29
 70
     1
102
RTVSPropertyOp30
 70
     1
102
RTVSPropertyOp31
 70
     1
102
RTVSPropertyOp32
 70
     1
102
RTVSPropertyOp33
 70
     1
102
RTVSPropertyOp34
 70
     1
102
RTVSPropertyOp35
 70
     1
102
RTVSPropertyOp36
 70
     1
102
RTVSPropertyOp37
 70
     1
102
RTVSPropertyOp38
 70
     1
102
RTVSPropertyOp39
 70
     1
102
RTVSPropertyOp40
 70
     1
102
RTVSPropertyOp41
 70
     1
102
RTVSPropertyOp42
 70
     1
102
RTVSPropertyOp43
 70
     1
102
RTVSPropertyOp44
 70
     1
102
RTVSPropertyOp45
 70
     1
102
RTVSPropertyOp46
 70
     1
102
RTVSPropertyOp47
 70
     1
102
RTVSPropertyOp48
 70
     1
102
RTVSPropertyOp49
 70
     1
102
RTVSPropertyOp50
 70
     1
102
RTVSPropertyOp51
 70
     0
102
RTVSPropertyOp52
 70
     0
102
RTVSPropertyOp53
 70
     1
102
RTVSPropertyOp54
 70
     1
102
RTVSPropertyOp55
 70
     1
102
RTVSPropertyOp56
 70
     1
102
RTVSPropertyOp57
 70
     1
102
RTVSPropertyOp58
 70
     1
102
RTVSPropertyOp59
 70
     1
102
RTVSPropertyOp60
 70
     1
102
RTVSPropertyOp61
 70
     1
102
RTVSPropertyOp62
 70
     1
  0
XRECORD
  5
15DE
102
{ACAD_REACTORS
330
15DD
102
}
330
15DD
100
AcDbXrecord
280
     1
102
RTVSPost2010Prop28
280
     0
102
RTVSPost2010PropOp28
 70
     1
102
RTVSPost2010Prop29
280
     1
102
RTVSPost2010PropOp29
 70
     1
102
RTVSPost2010Prop30
280
     1
102
RTVSPost2010PropOp30
 70
     1
102
RTVSPost2010Prop31
280
     0
102
RTVSPost2010PropOp31
 70
     1
102
RTVSPost2010Prop32
280
     0
102
RTVSPost2010PropOp32
 70
     1
102
RTVSPost2010Prop33
280
     0
102
RTVSPost2010PropOp33
 70
     1
102
RTVSPost2010Prop34
280
     0
102
RTVSPost2010PropOp34
 70
     1
102
RTVSPost2010Prop35
280
     0
102
RTVSPost2010PropOp35
 70
     1
102
RTVSPost2010Prop36
280
     0
102
RTVSPost2010PropOp36
 70
     1
102
RTVSPost2010Prop37
 90
       50
102
RTVSPost2010PropOp37
 70
     1
102
RTVSPost2010Prop38
140
0.0
102
RTVSPost2010PropOp38
 70
     1
102
RTVSPost2010Prop39
140
1.0
102
RTVSPost2010PropOp39
 70
     1
102
RTVSPost2010Prop40
 90
        0
102
RTVSPost2010PropOp40
 70
     1
102
RTVSPost2010Prop41ColorIndex
 90
       18
102
RTVSPost2010Prop41ColorRGB
 90
        0
102
RTVSPost2010PropOp41
 70
     1
102
RTVSPost2010Prop42
 90
       50
102
RTVSPost2010PropOp42
 70
     1
102
RTVSPost2010Prop43
 90
        3
102
RTVSPost2010PropOp43
 70
     1
102
RTVSPost2010Prop44ColorIndex
 90
        5
102
RTVSPost2010Prop44ColorRGB
 90
      255
102
RTVSPost2010PropOp44
 70
     1
102
RTVSPost2010Prop45
280
     0
102
RTVSPost2010PropOp45
 70
     1
102
RTVSPost2010Prop46
 90
       50
102
RTVSPost2010PropOp46
 70
     1
102
RTVSPost2010Prop47
 90
       50
102
RTVSPost2010PropOp47
 70
     1
102
RTVSPost2010Prop48
 90
       50
102
RTVSPost2010PropOp48
 70
     1
102
RTVSPost2010Prop49
280
     0
102
RTVSPost2010PropOp49
 70
     1
102
RTVSPost2010Prop50
 90
       50
102
RTVSPost2010PropOp50
 70
     1
102
RTVSPost2010Prop51ColorIndex
 90
      256
102
RTVSPost2010Prop51ColorRGB
 90
-16777216
102
RTVSPost2010PropOp51
 70
     0
102
RTVSPost2010Prop52
140
1.0
102
RTVSPost2010PropOp52
 70
     0
102
RTVSPost2010Prop53
 90
        2
102
RTVSPost2010PropOp53
 70
     1
102
RTVSPost2010Prop54
  1
strokes_ogs.tif
102
RTVSPost2010PropOp54
 70
     1
102
RTVSPost2010Prop55
280
     0
102
RTVSPost2010PropOp55
 70
     1
102
RTVSPost2010Prop56
140
1.0
102
RTVSPost2010PropOp56
 70
     1
102
RTVSPost2010Prop57
140
1.0
102
RTVSPost2010PropOp57
 70
     1
102
RTVSPropertyOp0
 70
     1
102
RTVSPropertyOp1
 70
     1
102
RTVSPropertyOp2
 70
     1
102
RTVSPropertyOp3
 70
     1
102
RTVSPropertyOp4
 70
     1
102
RTVSPropertyOp5
 70
     1
102
RTVSPropertyOp6
 70
     1
102
RTVSPropertyOp7
 70
     1
102
RTVSPropertyOp8
 70
     1
102
RTVSPropertyOp9
 70
     1
102
RTVSPropertyOp10
 70
     1
102
RTVSPropertyOp11
 70
     1
102
RTVSPropertyOp12
 70
     1
102
RTVSPropertyOp13
 70
     1
102
RTVSPropertyOp14
 70
     1
102
RTVSPropertyOp15
 70
     1
102
RTVSPropertyOp16
 70
     1
102
RTVSPropertyOp17
 70
     1
102
RTVSPropertyOp18
 70
     1
102
RTVSPropertyOp19
 70
     1
102
RTVSPropertyOp20
 70
     1
102
RTVSPropertyOp21
 70
     1
102
RTVSPropertyOp22
 70
     1
102
RTVSPropertyOp23
 70
     1
102
RTVSPropertyOp24
 70
     1
102
RTVSPropertyOp25
 70
     1
102
RTVSPropertyOp26
 70
     1
102
RTVSPropertyOp27
 70
     1
102
RTVSPropertyOp28
 70
     1
102
RTVSPropertyOp29
 70
     1
102
RTVSPropertyOp30
 70
     1
102
RTVSPropertyOp31
 70
     1
102
RTVSPropertyOp32
 70
     1
102
RTVSPropertyOp33
 70
     1
102
RTVSPropertyOp34
 70
     1
102
RTVSPropertyOp35
 70
     1
102
RTVSPropertyOp36
 70
     1
102
RTVSPropertyOp37
 70
     1
102
RTVSPropertyOp38
 70
     1
102
RTVSPropertyOp39
 70
     1
102
RTVSPropertyOp40
 70
     1
102
RTVSPropertyOp41
 70
     1
102
RTVSPropertyOp42
 70
     1
102
RTVSPropertyOp43
 70
     1
102
RTVSPropertyOp44
 70
     1
102
RTVSPropertyOp45
 70
     1
102
RTVSPropertyOp46
 70
     1
102
RTVSPropertyOp47
 70
     1
102
RTVSPropertyOp48
 70
     1
102
RTVSPropertyOp49
 70
     1
102
RTVSPropertyOp50
 70
     1
102
RTVSPropertyOp51
 70
     0
102
RTVSPropertyOp52
 70
     0
102
RTVSPropertyOp53
 70
     1
102
RTVSPropertyOp54
 70
     1
102
RTVSPropertyOp55
 70
     1
102
RTVSPropertyOp56
 70
     1
102
RTVSPropertyOp57
 70
     1
102
RTVSPropertyOp58
 70
     1
102
RTVSPropertyOp59
 70
     1
102
RTVSPropertyOp60
 70
     1
102
RTVSPropertyOp61
 70
     1
102
RTVSPropertyOp62
 70
     1
  0
XRECORD
  5
15E0
102
{ACAD_REACTORS
330
15DF
102
}
330
15DF
100
AcDbXrecord
280
     1
102
RTVSPost2010Prop28
280
     0
102
RTVSPost2010PropOp28
 70
     1
102
RTVSPost2010Prop29
280
     1
102
RTVSPost2010PropOp29
 70
     1
102
RTVSPost2010Prop30
280
     1
102
RTVSPost2010PropOp30
 70
     1
102
RTVSPost2010Prop31
280
     0
102
RTVSPost2010PropOp31
 70
     1
102
RTVSPost2010Prop32
280
     0
102
RTVSPost2010PropOp32
 70
     1
102
RTVSPost2010Prop33
280
     0
102
RTVSPost2010PropOp33
 70
     1
102
RTVSPost2010Prop34
280
     0
102
RTVSPost2010PropOp34
 70
     1
102
RTVSPost2010Prop35
280
     0
102
RTVSPost2010PropOp35
 70
     1
102
RTVSPost2010Prop36
280
     0
102
RTVSPost2010PropOp36
 70
     1
102
RTVSPost2010Prop37
 90
       50
102
RTVSPost2010PropOp37
 70
     1
102
RTVSPost2010Prop38
140
0.0
102
RTVSPost2010PropOp38
 70
     1
102
RTVSPost2010Prop39
140
1.0
102
RTVSPost2010PropOp39
 70
     1
102
RTVSPost2010Prop40
 90
        0
102
RTVSPost2010PropOp40
 70
     1
102
RTVSPost2010Prop41ColorIndex
 90
       18
102
RTVSPost2010Prop41ColorRGB
 90
        0
102
RTVSPost2010PropOp41
 70
     1
102
RTVSPost2010Prop42
 90
       50
102
RTVSPost2010PropOp42
 70
     1
102
RTVSPost2010Prop43
 90
        3
102
RTVSPost2010PropOp43
 70
     1
102
RTVSPost2010Prop44ColorIndex
 90
        5
102
RTVSPost2010Prop44ColorRGB
 90
      255
102
RTVSPost2010PropOp44
 70
     1
102
RTVSPost2010Prop45
280
     0
102
RTVSPost2010PropOp45
 70
     1
102
RTVSPost2010Prop46
 90
       50
102
RTVSPost2010PropOp46
 70
     1
102
RTVSPost2010Prop47
 90
       50
102
RTVSPost2010PropOp47
 70
     1
102
RTVSPost2010Prop48
 90
       50
102
RTVSPost2010PropOp48
 70
     1
102
RTVSPost2010Prop49
280
     0
102
RTVSPost2010PropOp49
 70
     1
102
RTVSPost2010Prop50
 90
       50
102
RTVSPost2010PropOp50
 70
     1
102
RTVSPost2010Prop51ColorIndex
 90
      256
102
RTVSPost2010Prop51ColorRGB
 90
-16777216
102
RTVSPost2010PropOp51
 70
     0
102
RTVSPost2010Prop52
140
1.0
102
RTVSPost2010PropOp52
 70
     0
102
RTVSPost2010Prop53
 90
        2
102
RTVSPost2010PropOp53
 70
     1
102
RTVSPost2010Prop54
  1
strokes_ogs.tif
102
RTVSPost2010PropOp54
 70
     1
102
RTVSPost2010Prop55
280
     0
102
RTVSPost2010PropOp55
 70
     1
102
RTVSPost2010Prop56
140
1.0
102
RTVSPost2010PropOp56
 70
     1
102
RTVSPost2010Prop57
140
1.0
102
RTVSPost2010PropOp57
 70
     1
102
RTVSPropertyOp0
 70
     1
102
RTVSPropertyOp1
 70
     1
102
RTVSPropertyOp2
 70
     1
102
RTVSPropertyOp3
 70
     1
102
RTVSPropertyOp4
 70
     1
102
RTVSPropertyOp5
 70
     1
102
RTVSPropertyOp6
 70
     1
102
RTVSPropertyOp7
 70
     1
102
RTVSPropertyOp8
 70
     1
102
RTVSPropertyOp9
 70
     1
102
RTVSPropertyOp10
 70
     1
102
RTVSPropertyOp11
 70
     1
102
RTVSPropertyOp12
 70
     1
102
RTVSPropertyOp13
 70
     1
102
RTVSPropertyOp14
 70
     1
102
RTVSPropertyOp15
 70
     1
102
RTVSPropertyOp16
 70
     1
102
RTVSPropertyOp17
 70
     1
102
RTVSPropertyOp18
 70
     1
102
RTVSPropertyOp19
 70
     1
102
RTVSPropertyOp20
 70
     1
102
RTVSPropertyOp21
 70
     1
102
RTVSPropertyOp22
 70
     1
102
RTVSPropertyOp23
 70
     1
102
RTVSPropertyOp24
 70
     1
102
RTVSPropertyOp25
 70
     1
102
RTVSPropertyOp26
 70
     1
102
RTVSPropertyOp27
 70
     1
102
RTVSPropertyOp28
 70
     1
102
RTVSPropertyOp29
 70
     1
102
RTVSPropertyOp30
 70
     1
102
RTVSPropertyOp31
 70
     1
102
RTVSPropertyOp32
 70
     1
102
RTVSPropertyOp33
 70
     1
102
RTVSPropertyOp34
 70
     1
102
RTVSPropertyOp35
 70
     1
102
RTVSPropertyOp36
 70
     1
102
RTVSPropertyOp37
 70
     1
102
RTVSPropertyOp38
 70
     1
102
RTVSPropertyOp39
 70
     1
102
RTVSPropertyOp40
 70
     1
102
RTVSPropertyOp41
 70
     1
102
RTVSPropertyOp42
 70
     1
102
RTVSPropertyOp43
 70
     1
102
RTVSPropertyOp44
 70
     1
102
RTVSPropertyOp45
 70
     1
102
RTVSPropertyOp46
 70
     1
102
RTVSPropertyOp47
 70
     1
102
RTVSPropertyOp48
 70
     1
102
RTVSPropertyOp49
 70
     1
102
RTVSPropertyOp50
 70
     1
102
RTVSPropertyOp51
 70
     0
102
RTVSPropertyOp52
 70
     0
102
RTVSPropertyOp53
 70
     1
102
RTVSPropertyOp54
 70
     1
102
RTVSPropertyOp55
 70
     1
102
RTVSPropertyOp56
 70
     1
102
RTVSPropertyOp57
 70
     1
102
RTVSPropertyOp58
 70
     1
102
RTVSPropertyOp59
 70
     1
102
RTVSPropertyOp60
 70
     1
102
RTVSPropertyOp61
 70
     1
102
RTVSPropertyOp62
 70
     1
  0
XRECORD
  5
15D2
102
{ACAD_REACTORS
330
15D1
102
}
330
15D1
100
AcDbXrecord
280
     1
102
RTVSPost2010Prop28
280
     0
102
RTVSPost2010PropOp28
 70
     1
102
RTVSPost2010Prop29
280
     1
102
RTVSPost2010PropOp29
 70
     1
102
RTVSPost2010Prop30
280
     1
102
RTVSPost2010PropOp30
 70
     1
102
RTVSPost2010Prop31
280
     0
102
RTVSPost2010PropOp31
 70
     1
102
RTVSPost2010Prop32
280
     0
102
RTVSPost2010PropOp32
 70
     1
102
RTVSPost2010Prop33
280
     0
102
RTVSPost2010PropOp33
 70
     1
102
RTVSPost2010Prop34
280
     0
102
RTVSPost2010PropOp34
 70
     1
102
RTVSPost2010Prop35
280
     0
102
RTVSPost2010PropOp35
 70
     1
102
RTVSPost2010Prop36
280
     0
102
RTVSPost2010PropOp36
 70
     1
102
RTVSPost2010Prop37
 90
       50
102
RTVSPost2010PropOp37
 70
     1
102
RTVSPost2010Prop38
140
0.0
102
RTVSPost2010PropOp38
 70
     1
102
RTVSPost2010Prop39
140
1.0
102
RTVSPost2010PropOp39
 70
     1
102
RTVSPost2010Prop40
 90
        0
102
RTVSPost2010PropOp40
 70
     1
102
RTVSPost2010Prop41ColorIndex
 90
       18
102
RTVSPost2010Prop41ColorRGB
 90
        0
102
RTVSPost2010PropOp41
 70
     1
102
RTVSPost2010Prop42
 90
       50
102
RTVSPost2010PropOp42
 70
     1
102
RTVSPost2010Prop43
 90
        3
102
RTVSPost2010PropOp43
 70
     1
102
RTVSPost2010Prop44ColorIndex
 90
        5
102
RTVSPost2010Prop44ColorRGB
 90
      255
102
RTVSPost2010PropOp44
 70
     1
102
RTVSPost2010Prop45
280
     0
102
RTVSPost2010PropOp45
 70
     1
102
RTVSPost2010Prop46
 90
       50
102
RTVSPost2010PropOp46
 70
     1
102
RTVSPost2010Prop47
 90
       50
102
RTVSPost2010PropOp47
 70
     1
102
RTVSPost2010Prop48
 90
       50
102
RTVSPost2010PropOp48
 70
     1
102
RTVSPost2010Prop49
280
     0
102
RTVSPost2010PropOp49
 70
     1
102
RTVSPost2010Prop50
 90
       50
102
RTVSPost2010PropOp50
 70
     1
102
RTVSPost2010Prop51ColorIndex
 90
      256
102
RTVSPost2010Prop51ColorRGB
 90
-16777216
102
RTVSPost2010PropOp51
 70
     0
102
RTVSPost2010Prop52
140
1.0
102
RTVSPost2010PropOp52
 70
     0
102
RTVSPost2010Prop53
 90
        2
102
RTVSPost2010PropOp53
 70
     1
102
RTVSPost2010Prop54
  1
strokes_ogs.tif
102
RTVSPost2010PropOp54
 70
     1
102
RTVSPost2010Prop55
280
     0
102
RTVSPost2010PropOp55
 70
     1
102
RTVSPost2010Prop56
140
1.0
102
RTVSPost2010PropOp56
 70
     1
102
RTVSPost2010Prop57
140
1.0
102
RTVSPost2010PropOp57
 70
     1
102
RTVSPropertyOp0
 70
     1
102
RTVSPropertyOp1
 70
     1
102
RTVSPropertyOp2
 70
     1
102
RTVSPropertyOp3
 70
     1
102
RTVSPropertyOp4
 70
     1
102
RTVSPropertyOp5
 70
     1
102
RTVSPropertyOp6
 70
     1
102
RTVSPropertyOp7
 70
     1
102
RTVSPropertyOp8
 70
     1
102
RTVSPropertyOp9
 70
     1
102
RTVSPropertyOp10
 70
     1
102
RTVSPropertyOp11
 70
     1
102
RTVSPropertyOp12
 70
     1
102
RTVSPropertyOp13
 70
     1
102
RTVSPropertyOp14
 70
     1
102
RTVSPropertyOp15
 70
     1
102
RTVSPropertyOp16
 70
     1
102
RTVSPropertyOp17
 70
     1
102
RTVSPropertyOp18
 70
     1
102
RTVSPropertyOp19
 70
     1
102
RTVSPropertyOp20
 70
     1
102
RTVSPropertyOp21
 70
     1
102
RTVSPropertyOp22
 70
     1
102
RTVSPropertyOp23
 70
     1
102
RTVSPropertyOp24
 70
     1
102
RTVSPropertyOp25
 70
     1
102
RTVSPropertyOp26
 70
     1
102
RTVSPropertyOp27
 70
     1
102
RTVSPropertyOp28
 70
     1
102
RTVSPropertyOp29
 70
     1
102
RTVSPropertyOp30
 70
     1
102
RTVSPropertyOp31
 70
     1
102
RTVSPropertyOp32
 70
     1
102
RTVSPropertyOp33
 70
     1
102
RTVSPropertyOp34
 70
     1
102
RTVSPropertyOp35
 70
     1
102
RTVSPropertyOp36
 70
     1
102
RTVSPropertyOp37
 70
     1
102
RTVSPropertyOp38
 70
     1
102
RTVSPropertyOp39
 70
     1
102
RTVSPropertyOp40
 70
     1
102
RTVSPropertyOp41
 70
     1
102
RTVSPropertyOp42
 70
     1
102
RTVSPropertyOp43
 70
     1
102
RTVSPropertyOp44
 70
     1
102
RTVSPropertyOp45
 70
     1
102
RTVSPropertyOp46
 70
     1
102
RTVSPropertyOp47
 70
     1
102
RTVSPropertyOp48
 70
     1
102
RTVSPropertyOp49
 70
     1
102
RTVSPropertyOp50
 70
     1
102
RTVSPropertyOp51
 70
     0
102
RTVSPropertyOp52
 70
     0
102
RTVSPropertyOp53
 70
     1
102
RTVSPropertyOp54
 70
     1
102
RTVSPropertyOp55
 70
     1
102
RTVSPropertyOp56
 70
     1
102
RTVSPropertyOp57
 70
     1
102
RTVSPropertyOp58
 70
     1
102
RTVSPropertyOp59
 70
     1
102
RTVSPropertyOp60
 70
     1
102
RTVSPropertyOp61
 70
     1
102
RTVSPropertyOp62
 70
     1
  0
XRECORD
  5
15DA
102
{ACAD_REACTORS
330
15D9
102
}
330
15D9
100
AcDbXrecord
280
     1
102
RTVSPost2010Prop28
280
     0
102
RTVSPost2010PropOp28
 70
     1
102
RTVSPost2010Prop29
280
     1
102
RTVSPost2010PropOp29
 70
     1
102
RTVSPost2010Prop30
280
     1
102
RTVSPost2010PropOp30
 70
     1
102
RTVSPost2010Prop31
280
     0
102
RTVSPost2010PropOp31
 70
     1
102
RTVSPost2010Prop32
280
     0
102
RTVSPost2010PropOp32
 70
     1
102
RTVSPost2010Prop33
280
     0
102
RTVSPost2010PropOp33
 70
     1
102
RTVSPost2010Prop34
280
     0
102
RTVSPost2010PropOp34
 70
     1
102
RTVSPost2010Prop35
280
     0
102
RTVSPost2010PropOp35
 70
     1
102
RTVSPost2010Prop36
280
     0
102
RTVSPost2010PropOp36
 70
     1
102
RTVSPost2010Prop37
 90
       50
102
RTVSPost2010PropOp37
 70
     1
102
RTVSPost2010Prop38
140
0.0
102
RTVSPost2010PropOp38
 70
     1
102
RTVSPost2010Prop39
140
1.0
102
RTVSPost2010PropOp39
 70
     1
102
RTVSPost2010Prop40
 90
        0
102
RTVSPost2010PropOp40
 70
     1
102
RTVSPost2010Prop41ColorIndex
 90
       18
102
RTVSPost2010Prop41ColorRGB
 90
        0
102
RTVSPost2010PropOp41
 70
     1
102
RTVSPost2010Prop42
 90
       50
102
RTVSPost2010PropOp42
 70
     1
102
RTVSPost2010Prop43
 90
        3
102
RTVSPost2010PropOp43
 70
     1
102
RTVSPost2010Prop44ColorIndex
 90
        5
102
RTVSPost2010Prop44ColorRGB
 90
      255
102
RTVSPost2010PropOp44
 70
     1
102
RTVSPost2010Prop45
280
     0
102
RTVSPost2010PropOp45
 70
     1
102
RTVSPost2010Prop46
 90
       50
102
RTVSPost2010PropOp46
 70
     1
102
RTVSPost2010Prop47
 90
       50
102
RTVSPost2010PropOp47
 70
     1
102
RTVSPost2010Prop48
 90
       50
102
RTVSPost2010PropOp48
 70
     1
102
RTVSPost2010Prop49
280
     0
102
RTVSPost2010PropOp49
 70
     1
102
RTVSPost2010Prop50
 90
       50
102
RTVSPost2010PropOp50
 70
     1
102
RTVSPost2010Prop51ColorIndex
 90
      256
102
RTVSPost2010Prop51ColorRGB
 90
-16777216
102
RTVSPost2010PropOp51
 70
     0
102
RTVSPost2010Prop52
140
1.0
102
RTVSPost2010PropOp52
 70
     0
102
RTVSPost2010Prop53
 90
        2
102
RTVSPost2010PropOp53
 70
     1
102
RTVSPost2010Prop54
  1
strokes_ogs.tif
102
RTVSPost2010PropOp54
 70
     1
102
RTVSPost2010Prop55
280
     0
102
RTVSPost2010PropOp55
 70
     1
102
RTVSPost2010Prop56
140
1.0
102
RTVSPost2010PropOp56
 70
     1
102
RTVSPost2010Prop57
140
1.0
102
RTVSPost2010PropOp57
 70
     1
102
RTVSPropertyOp0
 70
     1
102
RTVSPropertyOp1
 70
     1
102
RTVSPropertyOp2
 70
     1
102
RTVSPropertyOp3
 70
     1
102
RTVSPropertyOp4
 70
     1
102
RTVSPropertyOp5
 70
     1
102
RTVSPropertyOp6
 70
     1
102
RTVSPropertyOp7
 70
     1
102
RTVSPropertyOp8
 70
     1
102
RTVSPropertyOp9
 70
     1
102
RTVSPropertyOp10
 70
     1
102
RTVSPropertyOp11
 70
     1
102
RTVSPropertyOp12
 70
     1
102
RTVSPropertyOp13
 70
     1
102
RTVSPropertyOp14
 70
     1
102
RTVSPropertyOp15
 70
     1
102
RTVSPropertyOp16
 70
     1
102
RTVSPropertyOp17
 70
     1
102
RTVSPropertyOp18
 70
     1
102
RTVSPropertyOp19
 70
     1
102
RTVSPropertyOp20
 70
     1
102
RTVSPropertyOp21
 70
     1
102
RTVSPropertyOp22
 70
     1
102
RTVSPropertyOp23
 70
     1
102
RTVSPropertyOp24
 70
     1
102
RTVSPropertyOp25
 70
     1
102
RTVSPropertyOp26
 70
     1
102
RTVSPropertyOp27
 70
     1
102
RTVSPropertyOp28
 70
     1
102
RTVSPropertyOp29
 70
     1
102
RTVSPropertyOp30
 70
     1
102
RTVSPropertyOp31
 70
     1
102
RTVSPropertyOp32
 70
     1
102
RTVSPropertyOp33
 70
     1
102
RTVSPropertyOp34
 70
     1
102
RTVSPropertyOp35
 70
     1
102
RTVSPropertyOp36
 70
     1
102
RTVSPropertyOp37
 70
     1
102
RTVSPropertyOp38
 70
     1
102
RTVSPropertyOp39
 70
     1
102
RTVSPropertyOp40
 70
     1
102
RTVSPropertyOp41
 70
     1
102
RTVSPropertyOp42
 70
     1
102
RTVSPropertyOp43
 70
     1
102
RTVSPropertyOp44
 70
     1
102
RTVSPropertyOp45
 70
     1
102
RTVSPropertyOp46
 70
     1
102
RTVSPropertyOp47
 70
     1
102
RTVSPropertyOp48
 70
     1
102
RTVSPropertyOp49
 70
     1
102
RTVSPropertyOp50
 70
     1
102
RTVSPropertyOp51
 70
     0
102
RTVSPropertyOp52
 70
     0
102
RTVSPropertyOp53
 70
     1
102
RTVSPropertyOp54
 70
     1
102
RTVSPropertyOp55
 70
     1
102
RTVSPropertyOp56
 70
     1
102
RTVSPropertyOp57
 70
     1
102
RTVSPropertyOp58
 70
     1
102
RTVSPropertyOp59
 70
     1
102
RTVSPropertyOp60
 70
     1
102
RTVSPropertyOp61
 70
     1
102
RTVSPropertyOp62
 70
     1
  0
XRECORD
  5
15E2
102
{ACAD_REACTORS
330
15E1
102
}
330
15E1
100
AcDbXrecord
280
     1
102
RTVSPost2010Prop28
280
     0
102
RTVSPost2010PropOp28
 70
     1
102
RTVSPost2010Prop29
280
     1
102
RTVSPost2010PropOp29
 70
     1
102
RTVSPost2010Prop30
280
     1
102
RTVSPost2010PropOp30
 70
     1
102
RTVSPost2010Prop31
280
     0
102
RTVSPost2010PropOp31
 70
     1
102
RTVSPost2010Prop32
280
     0
102
RTVSPost2010PropOp32
 70
     1
102
RTVSPost2010Prop33
280
     0
102
RTVSPost2010PropOp33
 70
     1
102
RTVSPost2010Prop34
280
     0
102
RTVSPost2010PropOp34
 70
     1
102
RTVSPost2010Prop35
280
     0
102
RTVSPost2010PropOp35
 70
     1
102
RTVSPost2010Prop36
280
     0
102
RTVSPost2010PropOp36
 70
     1
102
RTVSPost2010Prop37
 90
       50
102
RTVSPost2010PropOp37
 70
     1
102
RTVSPost2010Prop38
140
0.0
102
RTVSPost2010PropOp38
 70
     1
102
RTVSPost2010Prop39
140
1.0
102
RTVSPost2010PropOp39
 70
     1
102
RTVSPost2010Prop40
 90
        0
102
RTVSPost2010PropOp40
 70
     1
102
RTVSPost2010Prop41ColorIndex
 90
       18
102
RTVSPost2010Prop41ColorRGB
 90
        0
102
RTVSPost2010PropOp41
 70
     1
102
RTVSPost2010Prop42
 90
       50
102
RTVSPost2010PropOp42
 70
     1
102
RTVSPost2010Prop43
 90
        3
102
RTVSPost2010PropOp43
 70
     1
102
RTVSPost2010Prop44ColorIndex
 90
        5
102
RTVSPost2010Prop44ColorRGB
 90
      255
102
RTVSPost2010PropOp44
 70
     1
102
RTVSPost2010Prop45
280
     0
102
RTVSPost2010PropOp45
 70
     1
102
RTVSPost2010Prop46
 90
       50
102
RTVSPost2010PropOp46
 70
     1
102
RTVSPost2010Prop47
 90
       50
102
RTVSPost2010PropOp47
 70
     1
102
RTVSPost2010Prop48
 90
       50
102
RTVSPost2010PropOp48
 70
     1
102
RTVSPost2010Prop49
280
     0
102
RTVSPost2010PropOp49
 70
     1
102
RTVSPost2010Prop50
 90
       50
102
RTVSPost2010PropOp50
 70
     1
102
RTVSPost2010Prop51ColorIndex
 90
      256
102
RTVSPost2010Prop51ColorRGB
 90
-16777216
102
RTVSPost2010PropOp51
 70
     0
102
RTVSPost2010Prop52
140
1.0
102
RTVSPost2010PropOp52
 70
     0
102
RTVSPost2010Prop53
 90
        2
102
RTVSPost2010PropOp53
 70
     1
102
RTVSPost2010Prop54
  1
strokes_ogs.tif
102
RTVSPost2010PropOp54
 70
     1
102
RTVSPost2010Prop55
280
     0
102
RTVSPost2010PropOp55
 70
     1
102
RTVSPost2010Prop56
140
1.0
102
RTVSPost2010PropOp56
 70
     1
102
RTVSPost2010Prop57
140
1.0
102
RTVSPost2010PropOp57
 70
     1
102
RTVSPropertyOp0
 70
     1
102
RTVSPropertyOp1
 70
     1
102
RTVSPropertyOp2
 70
     1
102
RTVSPropertyOp3
 70
     1
102
RTVSPropertyOp4
 70
     1
102
RTVSPropertyOp5
 70
     1
102
RTVSPropertyOp6
 70
     1
102
RTVSPropertyOp7
 70
     1
102
RTVSPropertyOp8
 70
     1
102
RTVSPropertyOp9
 70
     1
102
RTVSPropertyOp10
 70
     1
102
RTVSPropertyOp11
 70
     1
102
RTVSPropertyOp12
 70
     1
102
RTVSPropertyOp13
 70
     1
102
RTVSPropertyOp14
 70
     1
102
RTVSPropertyOp15
 70
     1
102
RTVSPropertyOp16
 70
     1
102
RTVSPropertyOp17
 70
     1
102
RTVSPropertyOp18
 70
     1
102
RTVSPropertyOp19
 70
     1
102
RTVSPropertyOp20
 70
     1
102
RTVSPropertyOp21
 70
     1
102
RTVSPropertyOp22
 70
     1
102
RTVSPropertyOp23
 70
     1
102
RTVSPropertyOp24
 70
     1
102
RTVSPropertyOp25
 70
     1
102
RTVSPropertyOp26
 70
     1
102
RTVSPropertyOp27
 70
     1
102
RTVSPropertyOp28
 70
     1
102
RTVSPropertyOp29
 70
     1
102
RTVSPropertyOp30
 70
     1
102
RTVSPropertyOp31
 70
     1
102
RTVSPropertyOp32
 70
     1
102
RTVSPropertyOp33
 70
     1
102
RTVSPropertyOp34
 70
     1
102
RTVSPropertyOp35
 70
     1
102
RTVSPropertyOp36
 70
     1
102
RTVSPropertyOp37
 70
     1
102
RTVSPropertyOp38
 70
     1
102
RTVSPropertyOp39
 70
     1
102
RTVSPropertyOp40
 70
     1
102
RTVSPropertyOp41
 70
     1
102
RTVSPropertyOp42
 70
     1
102
RTVSPropertyOp43
 70
     1
102
RTVSPropertyOp44
 70
     1
102
RTVSPropertyOp45
 70
     1
102
RTVSPropertyOp46
 70
     1
102
RTVSPropertyOp47
 70
     1
102
RTVSPropertyOp48
 70
     1
102
RTVSPropertyOp49
 70
     1
102
RTVSPropertyOp50
 70
     1
102
RTVSPropertyOp51
 70
     0
102
RTVSPropertyOp52
 70
     0
102
RTVSPropertyOp53
 70
     1
102
RTVSPropertyOp54
 70
     1
102
RTVSPropertyOp55
 70
     1
102
RTVSPropertyOp56
 70
     1
102
RTVSPropertyOp57
 70
     1
102
RTVSPropertyOp58
 70
     1
102
RTVSPropertyOp59
 70
     1
102
RTVSPropertyOp60
 70
     1
102
RTVSPropertyOp61
 70
     1
102
RTVSPropertyOp62
 70
     1
  0
ENDSEC
  0
EOF
